<?xml version="1.0" standalone="no"?>
<!DOCTYPE svg PUBLIC "-//W3C//DTD SVG 1.1//EN" "http://www.w3.org/Graphics/SVG/1.1/DTD/svg11.dtd" >
<svg xmlns="http://www.w3.org/2000/svg" xmlns:xlink="http://www.w3.org/1999/xlink" version="1.1">
<metadata>
Created by FontForge 20170731 at Wed Jan 19 23:07:55 2022
 By Aleksey,,,
(c) 1991, 2002 Adobe Systems Incorporated. All rights reserved.
</metadata>
<defs>
<font id="FrutigerLTStd-Cn" horiz-adv-x="983" >
  <font-face 
    font-family="Frutiger LT Std 57 Cn"
    font-weight="400"
    font-stretch="condensed"
    units-per-em="2048"
    panose-1="2 11 6 6 2 2 4 2 2 4"
    ascent="1536"
    descent="-512"
    x-height="1044"
    cap-height="1430"
    bbox="-215 -512 2048 1903"
    underline-thickness="102"
    underline-position="-307"
    unicode-range="U+0020-FB02"
  />
<missing-glyph horiz-adv-x="1024" 
d="M0 0v1434h1024v-1434h-1024zM512 809l348 522h-696zM573 717l349 -522v1044zM164 102h696l-348 523zM102 1239v-1044l349 522z" />
    <glyph glyph-name="f_i" unicode="fi" horiz-adv-x="1024" 
d="M711 0v1044h172v-1044h-172zM702 1475h189v-205h-189v205zM199 0v905h-166v139h166v234q0 133 64 208t196 75q69 0 135 -17v-147q-30 24 -98 24q-70 0 -97.5 -38t-27.5 -119v-220h188v-139h-188v-905h-172z" />
    <glyph glyph-name="f_l" unicode="fl" horiz-adv-x="1024" 
d="M711 0v1536h172v-1536h-172zM199 0v905h-166v139h166v234q0 133 64 208t196 75q69 0 135 -17v-147q-30 24 -98 24q-70 0 -97.5 -38t-27.5 -119v-220h188v-139h-188v-905h-172z" />
    <glyph glyph-name=".notdef" horiz-adv-x="1024" 
d="M0 0v1434h1024v-1434h-1024zM512 809l348 522h-696zM573 717l349 -522v1044zM164 102h696l-348 523zM102 1239v-1044l349 522z" />
    <glyph glyph-name=".null" horiz-adv-x="0" 
 />
    <glyph glyph-name="nonmarkingreturn" horiz-adv-x="682" 
 />
    <glyph glyph-name="space" unicode=" " horiz-adv-x="491" 
 />
    <glyph glyph-name="exclam" unicode="!" horiz-adv-x="720" 
d="M434 381h-147l-29 1049h205zM262 0v229h197v-229h-197z" />
    <glyph glyph-name="quotedbl" unicode="&#x22;" horiz-adv-x="1024" 
d="M592 1061v475h147v-475h-147zM285 1061v475h147v-475h-147z" />
    <glyph glyph-name="numbersign" unicode="#" 
d="M391 872l-43 -315h244l43 315h-244zM147 0l64 446h-203v111h217l43 315h-202v111h217l61 447h123l-61 -447h243l62 447h123l-62 -447h203v-111h-217l-43 -315h203v-111h-218l-63 -446h-123l64 446h-244l-64 -446h-123z" />
    <glyph glyph-name="dollar" unicode="$" 
d="M535 596v-428q62 27 96.5 81t34.5 118q0 72 -25.5 121.5t-105.5 107.5zM453 877v395q-64 -23 -100 -75.5t-36 -121.5q0 -57 27.5 -99.5t108.5 -98.5zM453 -193v181q-6 -2 -25 -2q-164 0 -289 61v186q154 -92 273 -92q27 0 41 2v510l-60 37q-153 95 -208.5 178t-55.5 217
q0 150 90 242t234 113v168h82v-164q150 -3 249 -47v-174q-108 65 -239 65h-10v-465q28 -20 53 -35q141 -84 203.5 -178.5t62.5 -218.5q0 -154 -82.5 -261.5t-236.5 -133.5v-189h-82z" />
    <glyph glyph-name="percent" unicode="%" horiz-adv-x="1667" 
d="M119 1049q0 197 75.5 296t208.5 99t209 -99t76 -296t-76 -296.5t-209 -99.5t-208.5 99.5t-75.5 296.5zM266 1049q0 -142 33 -207.5t104 -65.5t104.5 65.5t33.5 207.5t-33.5 207t-104.5 65t-104 -65t-33 -207zM979 381q0 197 76 296t209 99t208.5 -99t75.5 -296
t-75.5 -296t-208.5 -99t-209 99t-76 296zM1126 381q0 -142 33.5 -207t104.5 -65t104 65t33 207t-33 207t-104 65t-104.5 -65t-33.5 -207zM449 -68l641 1565h131l-641 -1565h-131z" />
    <glyph glyph-name="ampersand" unicode="&#x26;" horiz-adv-x="1251" 
d="M801 270l-316 426q-190 -125 -190 -301q0 -112 71.5 -187t190.5 -75q68 0 138.5 41t105.5 96zM1214 0h-213l-112 158q-52 -84 -147.5 -128t-206.5 -44q-133 0 -229.5 54.5t-143.5 142.5t-47 198q0 148 69.5 252t212.5 182q-43 62 -68 101.5t-51 105t-26 119.5
q0 138 92 220.5t238 82.5q144 0 232.5 -84t88.5 -213q0 -214 -272 -369l264 -366q74 162 86 391h172q-9 -139 -50 -276t-110 -244zM739 1149q0 65 -40.5 110.5t-114.5 45.5q-73 0 -120.5 -43t-47.5 -111q0 -51 40 -124.5t91 -135.5q105 65 148.5 124.5t43.5 133.5z" />
    <glyph glyph-name="quotesingle" unicode="'" horiz-adv-x="491" 
d="M172 1061v475h147v-475h-147z" />
    <glyph glyph-name="parenleft" unicode="(" horiz-adv-x="569" 
d="M543 -274l-137 -13q-131 224 -208 467.5t-77 450.5t76.5 450t208.5 467l137 -12q-143 -278 -196.5 -477t-53.5 -428t53.5 -428t196.5 -477z" />
    <glyph glyph-name="parenright" unicode=")" horiz-adv-x="569" 
d="M164 -287l-137 13q143 277 196 476.5t53 428.5t-53 428.5t-196 476.5l137 12q132 -224 208.5 -467t76.5 -450t-77 -450.5t-208 -467.5z" />
    <glyph glyph-name="asterisk" unicode="*" horiz-adv-x="1024" 
d="M563 1270l248 104l49 -147l-262 -60l176 -202l-127 -91l-135 230l-139 -230l-125 91l178 202l-262 60l47 147l246 -106l-23 268h156z" />
    <glyph glyph-name="plus" unicode="+" horiz-adv-x="1228" 
d="M96 449v139h449v448h139v-448h449v-139h-449v-449h-139v449h-449z" />
    <glyph glyph-name="comma" unicode="," horiz-adv-x="491" 
d="M53 -246l103 475h188l-135 -475h-156z" />
    <glyph glyph-name="hyphen" unicode="-" horiz-adv-x="606" 
d="M82 502v147h442v-147h-442z" />
    <glyph glyph-name="period" unicode="." horiz-adv-x="491" 
d="M147 0v229h197v-229h-197z" />
    <glyph glyph-name="slash" unicode="/" horiz-adv-x="530" 
d="M0 -14l379 1458h151l-378 -1458h-152z" />
    <glyph glyph-name="zero" unicode="0" 
d="M256 715q0 -301 56.5 -441.5t179.5 -140.5t179 140t56 442t-56 441.5t-179 139.5t-179.5 -140t-56.5 -441zM76 715q0 356 107 542.5t309 186.5t308.5 -186t106.5 -543t-106.5 -543t-308.5 -186t-309 186.5t-107 542.5z" />
    <glyph glyph-name="one" unicode="1" 
d="M414 0v1223l-183 -205l-94 133l293 279h164v-1430h-180z" />
    <glyph glyph-name="two" unicode="2" 
d="M76 0v158q276 317 409 534t133 357q0 103 -54.5 171t-155.5 68q-62 0 -138 -30.5t-137 -79.5l-22 180q179 86 335 86q162 0 261.5 -104.5t99.5 -256.5q0 -184 -148 -437t-385 -490h553v-156h-751z" />
    <glyph glyph-name="three" unicode="3" 
d="M76 39l16 176q151 -82 273 -82q121 0 206.5 80t85.5 207q0 110 -74.5 177t-203.5 67h-133v147h73q162 0 248 69t86 183q0 105 -70.5 169t-183.5 64q-58 0 -129.5 -21.5t-132.5 -57.5l-16 167q128 60 313 60q85 0 157 -22t126.5 -64.5t85.5 -111t31 -156.5
q0 -142 -72.5 -226.5t-192.5 -109.5v-4q129 -17 203 -115.5t74 -237.5q0 -86 -29.5 -159.5t-86 -130t-146.5 -89t-203 -32.5q-77 0 -161.5 15t-143.5 38z" />
    <glyph glyph-name="four" unicode="4" 
d="M608 0v324h-561v172l514 934h219v-959h156v-147h-156v-324h-172zM608 471v778h-4l-405 -778h409z" />
    <glyph glyph-name="five" unicode="5" 
d="M125 43l8 166q50 -30 120 -53t128 -23q134 0 215.5 91t81.5 233q0 146 -79 223.5t-224 77.5q-87 0 -236 -47v719h658v-148h-486v-399q71 22 162 22q80 0 150.5 -27.5t125 -79t86 -134t31.5 -185.5q0 -228 -118 -360.5t-342 -132.5q-152 0 -281 57z" />
    <glyph glyph-name="six" unicode="6" 
d="M274 446q0 -81 24 -150.5t77.5 -116t126.5 -46.5q107 0 166 93t59 220q0 79 -23.5 148.5t-76.5 116.5t-125 47q-108 0 -168 -93.5t-60 -218.5zM844 1403l-8 -168q-99 61 -220 61q-175 0 -271.5 -154t-96.5 -413h4q37 83 111.5 129.5t171.5 46.5q116 0 202.5 -65.5
t128 -165t41.5 -215.5q0 -228 -115 -350.5t-296 -122.5q-220 0 -320 173t-100 498q0 787 530 787q135 0 238 -41z" />
    <glyph glyph-name="seven" unicode="7" 
d="M227 0l469 1274h-581v156h753v-170l-442 -1260h-199z" />
    <glyph glyph-name="eight" unicode="8" 
d="M285 1083q0 -174 223 -272q190 135 190 285q0 80 -59.5 140t-146.5 60q-88 0 -147.5 -62t-59.5 -151zM256 397q0 -110 67.5 -187t180.5 -77q98 0 160.5 71t62.5 181q0 98 -57 165.5t-191 129.5q-129 -70 -176 -134t-47 -149zM76 377q0 256 268 364q-122 59 -181 156
t-59 199q0 67 26 129t73.5 111t122.5 78.5t166 29.5q178 0 282.5 -103.5t104.5 -244.5q0 -65 -22.5 -128t-78 -125t-137.5 -102q266 -108 266 -364q0 -170 -113 -280.5t-302 -110.5q-190 0 -303 110.5t-113 280.5z" />
    <glyph glyph-name="nine" unicode="9" 
d="M256 983q0 -79 23.5 -148t76.5 -116t125 -47q108 0 168 93t60 218q0 81 -24 150.5t-77.5 116t-126.5 46.5q-107 0 -166 -93t-59 -220zM139 27l8 168q100 -62 220 -62q175 0 271.5 154t96.5 413h-4q-37 -83 -111 -129.5t-171 -46.5q-88 0 -160 38t-117.5 101.5
t-70.5 142.5t-25 165q0 228 115 350.5t296 122.5q220 0 320 -173.5t100 -498.5q0 -786 -530 -786q-135 0 -238 41z" />
    <glyph glyph-name="colon" unicode=":" horiz-adv-x="491" 
d="M147 815v229h197v-229h-197zM147 0v229h197v-229h-197z" />
    <glyph glyph-name="semicolon" unicode=";" horiz-adv-x="491" 
d="M53 -246l103 475h188l-135 -475h-156zM147 815v229h197v-229h-197z" />
    <glyph glyph-name="less" unicode="&#x3c;" horiz-adv-x="1228" 
d="M96 453v131l1037 467v-131l-881 -402l881 -401v-131z" />
    <glyph glyph-name="equal" unicode="=" horiz-adv-x="1228" 
d="M96 655v140h1037v-140h-1037zM96 242v139h1037v-139h-1037z" />
    <glyph glyph-name="greater" unicode="&#x3e;" horiz-adv-x="1228" 
d="M96 -14v131l881 401l-881 402v131l1037 -467v-131z" />
    <glyph glyph-name="question" unicode="?" horiz-adv-x="909" 
d="M156 1219l-9 167q129 58 265 58q173 0 273.5 -92t100.5 -260q0 -157 -104 -312l-119 -174q-40 -56 -51.5 -97t-11.5 -138h-156q0 143 23.5 214t115.5 185q68 85 95.5 149t27.5 138q0 102 -61.5 166.5t-155.5 64.5q-95 0 -233 -69zM324 0v229h196v-229h-196z" />
    <glyph glyph-name="at" unicode="@" horiz-adv-x="1638" 
d="M553 596q0 -89 40.5 -141t104.5 -52q70 0 134.5 42.5t107 107t67.5 138t25 136.5q0 84 -44 132.5t-116 48.5q-50 0 -105.5 -31.5t-103 -84t-79 -131.5t-31.5 -165zM1264 1098l-174 -551q-21 -58 -21 -98q0 -46 45 -46q74 0 142 59t110.5 159t42.5 213q0 218 -150 348.5
t-395 130.5q-281 0 -458 -169.5t-177 -428.5q0 -168 77.5 -305.5t212.5 -215t300 -77.5q195 0 324.5 54.5t218.5 160.5h127q-97 -164 -272.5 -255t-397.5 -91q-148 0 -283 57.5t-233 155.5t-155.5 233t-57.5 283q0 149 58.5 283.5t159.5 232.5t246 155.5t310 57.5
q189 0 346.5 -81.5t247.5 -221.5t90 -307q0 -99 -31.5 -189t-81.5 -154.5t-111.5 -113t-123 -72.5t-113.5 -24q-134 0 -161 122h-4q-113 -122 -267 -122q-122 0 -190 89.5t-68 213.5q0 133 57.5 257t167.5 206.5t246 82.5q71 0 131.5 -41t92.5 -114l41 123h131z" />
    <glyph glyph-name="A" unicode="A" horiz-adv-x="1175" 
d="M496 1430h196l467 -1430h-188l-115 373h-545l-114 -373h-181zM360 528h449l-219 713h-4z" />
    <glyph glyph-name="B" unicode="B" horiz-adv-x="1062" 
d="M158 0v1430h362q199 0 298.5 -98.5t99.5 -264.5q0 -116 -64 -201t-172 -116v-5q120 -18 193 -112t73 -242q0 -77 -26.5 -145.5t-79 -124.5t-140.5 -88.5t-200 -32.5h-344zM338 1282v-471h106q148 0 220.5 64t72.5 182q0 100 -64.5 162.5t-197.5 62.5h-137zM338 664v-517
h154q137 0 206.5 73t69.5 183q0 116 -65.5 188.5t-190.5 72.5h-174z" />
    <glyph glyph-name="C" unicode="C" horiz-adv-x="1099" 
d="M1001 209v-180q-137 -43 -260 -43q-132 0 -240.5 39t-182 106.5t-124 161t-73.5 199.5t-23 225q0 331 175 529t458 198q168 0 270 -51v-176q-113 71 -268 71q-70 0 -135.5 -22t-122 -66.5t-98.5 -107t-66 -149.5t-24 -189q0 -286 115.5 -449.5t342.5 -163.5q139 0 256 68
z" />
    <glyph glyph-name="D" unicode="D" horiz-adv-x="1175" 
d="M137 0v1430h312q232 0 380 -103q52 -36 96 -85.5t83.5 -120.5t62.5 -170t23 -214q0 -106 -17.5 -198.5t-53.5 -176t-95 -149.5t-139 -114t-188.5 -73.5t-240.5 -25.5h-223zM317 1274v-1118h109q234 0 356.5 151.5t122.5 429.5q0 116 -26 210.5t-81 169.5t-149.5 116
t-222.5 41h-109z" />
    <glyph glyph-name="E" unicode="E" horiz-adv-x="948" 
d="M158 0v1430h665v-156h-485v-455h463v-155h-463v-508h512v-156h-692z" />
    <glyph glyph-name="F" unicode="F" horiz-adv-x="872" 
d="M158 0v1430h639v-156h-459v-455h436v-155h-436v-664h-180z" />
    <glyph glyph-name="G" unicode="G" horiz-adv-x="1253" 
d="M1096 786v-727q-198 -73 -355 -73q-132 0 -240.5 39t-182 106.5t-124 161t-73.5 199.5t-23 225q0 331 175 529t458 198q203 0 336 -64v-180q-174 88 -334 88q-70 0 -135.5 -22t-122 -66.5t-98.5 -107t-66 -149.5t-24 -189q0 -286 115.5 -449.5t342.5 -163.5q106 0 179 39
v451h-240v155h412z" />
    <glyph glyph-name="H" unicode="H" horiz-adv-x="1175" 
d="M158 0v1430h180v-611h500v611h180v-1430h-180v664h-500v-664h-180z" />
    <glyph glyph-name="I" unicode="I" horiz-adv-x="495" 
d="M158 0v1430h180v-1430h-180z" />
    <glyph glyph-name="J" unicode="J" horiz-adv-x="645" 
d="M47 0v178q77 -20 100 -20q181 0 181 227v1045h180v-1055q0 -178 -78 -283.5t-233 -105.5q-40 0 -150 14z" />
    <glyph glyph-name="K" unicode="K" horiz-adv-x="1062" 
d="M137 0v1430h180v-621h5l473 621h215l-537 -676l582 -754h-234l-499 692h-5v-692h-180z" />
    <glyph glyph-name="L" unicode="L" horiz-adv-x="833" 
d="M158 0v1430h180v-1274h469v-156h-649z" />
    <glyph glyph-name="M" unicode="M" horiz-adv-x="1593" 
d="M158 0v1430h278l359 -1137h4l366 1137h271v-1430h-172v1233h-4l-406 -1233h-131l-389 1233h-4v-1233h-172z" />
    <glyph glyph-name="N" unicode="N" horiz-adv-x="1253" 
d="M158 0v1430h223l539 -1180h4v1180h172v-1430h-224l-538 1171h-4v-1171h-172z" />
    <glyph glyph-name="O" unicode="O" horiz-adv-x="1253" 
d="M98 700q0 366 140 555t397 189q239 0 379.5 -192.5t140.5 -522.5q0 -366 -140 -554.5t-397 -188.5q-239 0 -379.5 192t-140.5 522zM287 700q0 -113 18.5 -211t56 -180t103.5 -129t153 -47q73 0 134 32t110.5 100t77 186t27.5 278q0 113 -18.5 211.5t-56.5 180t-104 128.5
t-153 47q-73 0 -134 -32t-110 -100t-76.5 -186t-27.5 -278z" />
    <glyph glyph-name="P" unicode="P" horiz-adv-x="985" 
d="M158 0v1430h344q104 0 177 -27.5t132 -83.5q113 -110 113 -295q0 -209 -118.5 -317.5t-346.5 -108.5h-121v-598h-180zM338 1282v-537h98q299 0 299 263q0 274 -295 274h-102z" />
    <glyph glyph-name="Q" unicode="Q" horiz-adv-x="1253" 
d="M1126 -266h-221l-215 260q-30 -6 -35 -6q-6 0 -18.5 -1t-18.5 -1q-239 0 -379.5 192t-140.5 522q0 366 140 555t397 189q239 0 379.5 -192.5t140.5 -522.5q0 -271 -77.5 -445t-225.5 -247zM287 700q0 -113 18.5 -211t56 -180t103.5 -129t153 -47q73 0 134 32t110.5 100
t77 186t27.5 278q0 113 -18.5 211.5t-56.5 180t-104 128.5t-153 47q-73 0 -134 -32t-110 -100t-76.5 -186t-27.5 -278z" />
    <glyph glyph-name="R" unicode="R" horiz-adv-x="1062" 
d="M158 0v1430h366q108 0 178 -25t123 -74q107 -101 107 -272q0 -126 -67.5 -218t-215.5 -124v-4q63 -12 98.5 -44.5t57.5 -95.5l201 -573h-195l-164 483q-32 91 -80 127.5t-147 36.5h-82v-647h-180zM338 1282v-487h139q70 0 122.5 21.5t83 58t45.5 80t15 92.5
q0 117 -70 176t-192 59h-143z" />
    <glyph glyph-name="S" unicode="S" horiz-adv-x="909" 
d="M748 1397v-174q-108 65 -244 65q-100 0 -161.5 -60.5t-61.5 -152.5q0 -73 46.5 -127.5t194.5 -140.5q161 -93 228 -191t67 -225q0 -178 -109 -291.5t-307 -113.5q-174 0 -299 61v186q154 -92 273 -92q116 0 185 66.5t69 159.5q0 60 -14.5 100t-63 86t-143.5 104
q-191 115 -253.5 201.5t-62.5 226.5q0 170 113 264.5t284 94.5q149 0 259 -47z" />
    <glyph glyph-name="T" unicode="T" horiz-adv-x="909" 
d="M365 0v1274h-328v156h835v-156h-327v-1274h-180z" />
    <glyph glyph-name="U" unicode="U" horiz-adv-x="1212" 
d="M1055 1430v-904q0 -112 -11.5 -179.5t-46.5 -139.5q-49 -98 -147 -159.5t-244 -61.5t-244 61.5t-147 159.5q-35 71 -46 138.5t-11 180.5v904h180v-930q0 -169 71 -268t197 -99t197 99t71 268v930h181z" />
    <glyph glyph-name="V" unicode="V" horiz-adv-x="1099" 
d="M453 0l-435 1430h197l332 -1166h4l350 1166h180l-448 -1430h-180z" />
    <glyph glyph-name="W" unicode="W" horiz-adv-x="1630" 
d="M330 0l-312 1430h189l233 -1160h4l256 1160h230l256 -1160h4l250 1160h172l-312 -1430h-213l-270 1225h-4l-270 -1225h-213z" />
    <glyph glyph-name="X" unicode="X" horiz-adv-x="1099" 
d="M12 0l434 756l-383 674h213l299 -527l287 527h199l-399 -676l425 -754h-213l-335 596l-322 -596h-205z" />
    <glyph glyph-name="Y" unicode="Y" horiz-adv-x="1060" 
d="M440 0v600l-428 830h205l315 -633l318 633h199l-428 -830v-600h-181z" />
    <glyph glyph-name="Z" unicode="Z" horiz-adv-x="948" 
d="M70 0v170l581 1104h-563v156h778v-156l-600 -1118h613v-156h-809z" />
    <glyph glyph-name="bracketleft" unicode="[" horiz-adv-x="569" 
d="M184 -287v1835h312v-123h-164v-1589h164v-123h-312z" />
    <glyph glyph-name="backslash" unicode="\" horiz-adv-x="530" 
d="M379 -14l-379 1458h152l378 -1458h-151z" />
    <glyph glyph-name="bracketright" unicode="]" horiz-adv-x="569" 
d="M74 -287v123h164v1589h-164v123h311v-1835h-311z" />
    <glyph glyph-name="asciicircum" unicode="^" horiz-adv-x="1228" 
d="M96 543l453 887h131l453 -887h-148l-371 747l-370 -747h-148z" />
    <glyph glyph-name="underscore" unicode="_" horiz-adv-x="1024" 
d="M0 -256v102h1024v-102h-1024z" />
    <glyph glyph-name="grave" unicode="`" horiz-adv-x="417" 
d="M180 1188l-209 297h203l137 -297h-131z" />
    <glyph glyph-name="a" unicode="a" horiz-adv-x="948" 
d="M184 811l-18 162q134 86 295 86q101 0 171.5 -31t106.5 -67q42 -42 66 -99t24 -157v-545q0 -77 9 -160h-156l-10 141h-4q-91 -155 -293 -155q-134 0 -217.5 77.5t-83.5 223.5q0 163 118 257.5t373 94.5h101v47q0 63 -7.5 99.5t-31.5 68.5q-49 66 -174 66
q-79 0 -152 -29.5t-117 -79.5zM666 381v131q-31 4 -121 4q-146 0 -222.5 -60.5t-76.5 -156.5q0 -86 44.5 -134t131.5 -48q109 0 176.5 76.5t67.5 187.5z" />
    <glyph glyph-name="b" unicode="b" horiz-adv-x="985" 
d="M281 522q0 -199 56 -298t173 -99t173 99t56 298t-56 298.5t-173 99.5t-173 -99.5t-56 -298.5zM109 193v1343h172v-635h4q53 84 115 121t151 37q166 0 263 -137t97 -400t-97 -399.5t-263 -136.5q-183 0 -275 168h-4l-6 -154h-166q1 23 5 90t4 103z" />
    <glyph glyph-name="c" unicode="c" horiz-adv-x="796" 
d="M748 1018l-9 -156q-88 49 -198 49q-133 0 -210 -97.5t-77 -301.5q0 -178 77.5 -278.5t205.5 -100.5q106 0 211 55l8 -157q-41 -18 -103 -31.5t-116 -13.5q-114 0 -203 40.5t-145.5 112t-85.5 166.5t-29 207q0 254 124.5 400.5t342.5 146.5q123 0 207 -41z" />
    <glyph glyph-name="d" unicode="d" horiz-adv-x="985" 
d="M705 522q0 398 -230 398q-117 0 -173 -99.5t-56 -298.5t56 -298t173 -99q230 0 230 397zM877 1536v-1343q0 -36 3.5 -104.5t4.5 -88.5h-166l-6 154h-4q-92 -168 -275 -168q-166 0 -263 136.5t-97 399.5t97 400t263 137q89 0 151 -37t115 -121h5v635h172z" />
    <glyph glyph-name="e" unicode="e" horiz-adv-x="909" 
d="M844 471h-590q0 -180 71 -267t214 -87q60 0 125 25t114 61l8 -156q-128 -61 -292 -61q-204 0 -312 142.5t-108 393.5q0 249 105 393t298 144q175 0 271 -132t96 -364v-92zM254 602h418q0 326 -205 326q-92 0 -151 -77.5t-62 -248.5z" />
    <glyph glyph-name="f" unicode="f" horiz-adv-x="569" 
d="M199 0v905h-166v139h166v234q0 133 64 208t196 75q69 0 135 -17v-147q-30 24 -98 24q-70 0 -97.5 -38t-27.5 -119v-220h188v-139h-188v-905h-172z" />
    <glyph glyph-name="g" unicode="g" horiz-adv-x="985" 
d="M246 522q0 -199 56 -298t173 -99q230 0 230 397q0 398 -230 398q-117 0 -173 -99.5t-56 -298.5zM877 854v-899q0 -105 -37 -185.5t-101 -128.5t-142 -72t-167 -24q-63 0 -154 19.5t-151 44.5l8 174q57 -38 138 -64t149 -26q151 0 222 81t71 224v164h-4
q-101 -176 -275 -176q-166 0 -263 136.5t-97 399.5q0 265 100 401t279 136q77 0 145 -45t111 -121h4l6 151h166q-1 -18 -4.5 -86t-3.5 -104z" />
    <glyph glyph-name="h" unicode="h" horiz-adv-x="987" 
d="M125 0v1536h172v-635h4q36 70 102.5 114t153.5 44q142 0 223.5 -84t81.5 -250v-725h-172v674q0 237 -172 237q-104 0 -162.5 -72t-58.5 -210v-629h-172z" />
    <glyph glyph-name="i" unicode="i" horiz-adv-x="454" 
d="M141 0v1044h172v-1044h-172zM133 1475h189v-205h-189v205z" />
    <glyph glyph-name="j" unicode="j" horiz-adv-x="454" 
d="M-25 -436v139q58 -10 76 -10q54 0 72 28.5t18 108.5v1214h172v-1237q0 -138 -51.5 -200t-187.5 -62q-53 0 -99 19zM133 1475h189v-205h-189v205z" />
    <glyph glyph-name="k" unicode="k" horiz-adv-x="909" 
d="M297 625l358 419h201l-410 -466l447 -578h-213l-379 526h-4v-526h-172v1536h172v-911z" />
    <glyph glyph-name="l" unicode="l" horiz-adv-x="454" 
d="M141 0v1536h172v-1536h-172z" />
    <glyph glyph-name="m" unicode="m" horiz-adv-x="1478" 
d="M125 0v819q0 44 -3.5 122.5t-4.5 102.5h166l6 -155h4q79 170 258 170q164 0 246 -164q88 164 254 164q140 0 221.5 -84t81.5 -250v-725h-172v717q0 194 -160 194q-98 0 -147.5 -64t-49.5 -202v-645h-172v717q0 194 -159 194q-98 0 -147.5 -64t-49.5 -202v-645h-172z" />
    <glyph glyph-name="n" unicode="n" horiz-adv-x="987" 
d="M125 0v819q0 44 -3.5 122.5t-4.5 102.5h166l6 -155h4q79 170 264 170q142 0 223.5 -84t81.5 -250v-725h-172v674q0 237 -172 237q-104 0 -162.5 -72t-58.5 -210v-629h-172z" />
    <glyph glyph-name="o" unicode="o" horiz-adv-x="987" 
d="M254 522q0 -397 240 -397q239 0 239 397q0 398 -239 398q-240 0 -240 -398zM74 522q0 251 108.5 394t311.5 143t311 -143t108 -394t-108 -393.5t-311 -142.5q-204 0 -312 142.5t-108 393.5z" />
    <glyph glyph-name="p" unicode="p" horiz-adv-x="985" 
d="M281 522q0 -199 56 -298t173 -99t173 99t56 298t-56 298.5t-173 99.5t-173 -99.5t-56 -298.5zM109 -442v1294q0 36 -4 102.5t-5 89.5h166l6 -153h4q92 168 275 168q166 0 263 -137t97 -400t-97 -399.5t-263 -136.5q-89 0 -151 37t-115 120h-4v-585h-172z" />
    <glyph glyph-name="q" unicode="q" horiz-adv-x="985" 
d="M705 522q0 398 -230 398q-117 0 -173 -99.5t-56 -298.5t56 -298t173 -99q230 0 230 397zM705 -442v585h-5q-53 -83 -115 -120t-151 -37q-166 0 -263 136.5t-97 399.5t97 400t263 137q183 0 275 -168h4l6 153h166q-1 -20 -4.5 -88t-3.5 -104v-1294h-172z" />
    <glyph glyph-name="r" unicode="r" horiz-adv-x="606" 
d="M125 0v819q0 44 -3.5 122.5t-4.5 102.5h166l6 -163h4q41 95 111 136.5t186 41.5v-170q-30 6 -66 6q-103 0 -165 -88t-62 -254v-553h-172z" />
    <glyph glyph-name="s" unicode="s" horiz-adv-x="757" 
d="M70 47l10 156q129 -78 246 -78q94 0 146 42t52 105q0 55 -31 93.5t-102 70.5l-115 51q-113 51 -158.5 110.5t-45.5 158.5q0 131 93 217t243 86q126 0 221 -37l-8 -148q-98 46 -205 46q-82 0 -127 -40t-45 -104q0 -60 42.5 -100t133.5 -76l61 -25q207 -83 207 -266
q0 -145 -82.5 -234t-253.5 -89q-163 0 -282 61z" />
    <glyph glyph-name="t" unicode="t" horiz-adv-x="606" 
d="M586 152v-140q-76 -26 -146 -26q-123 0 -182 56.5t-59 190.5v672h-166v139h166v213l172 52v-265h215v-139h-215v-616q0 -89 24.5 -126.5t83.5 -37.5q43 0 107 27z" />
    <glyph glyph-name="u" unicode="u" horiz-adv-x="987" 
d="M862 1044v-819q0 -44 3.5 -122.5t4.5 -102.5h-165l-7 156h-4q-79 -170 -264 -170q-142 0 -223.5 83.5t-81.5 249.5v725h172v-673q0 -238 172 -238q103 0 162 72.5t59 210.5v628h172z" />
    <glyph glyph-name="v" unicode="v" horiz-adv-x="872" 
d="M336 0l-318 1044h189l229 -872h4l234 872h180l-313 -1044h-205z" />
    <glyph glyph-name="w" unicode="w" horiz-adv-x="1402" 
d="M1384 1044l-272 -1044h-197l-219 883h-4l-200 -883h-197l-277 1044h181l198 -872h4l199 872h205l207 -872h4l196 872h172z" />
    <glyph glyph-name="x" unicode="x" horiz-adv-x="872" 
d="M18 0l310 561l-279 483h189l200 -376l201 376h188l-290 -489l317 -555h-197l-231 432l-219 -432h-189z" />
    <glyph glyph-name="y" unicode="y" horiz-adv-x="833" 
d="M815 1044l-362 -1257q-38 -132 -97.5 -187t-158.5 -55q-67 0 -117 13l8 155q45 -20 94 -20q41 0 68 27t47 104l41 160l-330 1060h180l234 -851h4l217 851h172z" />
    <glyph glyph-name="z" unicode="z" horiz-adv-x="796" 
d="M80 1044h643v-155l-483 -742h493v-147h-670v156l484 741h-467v147z" />
    <glyph glyph-name="braceleft" unicode="{" horiz-adv-x="569" 
d="M551 1548v-94h-78q-60 0 -82 -32t-22 -117v-383q0 -70 -18 -126.5t-46.5 -89t-56 -50.5t-53.5 -23v-4q26 -5 53.5 -23t56 -50.5t46.5 -89t18 -126.5v-383q0 -85 22 -117.5t82 -32.5h78v-94h-121q-91 0 -150 66.5t-59 181.5v346q0 277 -158 277v94q158 0 158 276v346
q0 115 59 181.5t150 66.5h121z" />
    <glyph glyph-name="bar" unicode="|" horiz-adv-x="454" 
d="M150 -512v2048h155v-2048h-155z" />
    <glyph glyph-name="braceright" unicode="}" horiz-adv-x="569" 
d="M18 -287v94h78q60 0 82.5 32.5t22.5 117.5v383q0 70 18 126.5t46.5 89t56 50.5t53.5 23v4q-26 5 -53.5 23t-56 50.5t-46.5 89t-18 126.5v383q0 85 -22.5 117t-82.5 32h-78v94h121q91 0 150 -66.5t59 -181.5v-346q0 -276 158 -276v-94q-158 0 -158 -277v-346
q0 -115 -59 -181.5t-150 -66.5h-121z" />
    <glyph glyph-name="asciitilde" unicode="~" horiz-adv-x="1228" 
d="M1014 664l73 -105q-104 -186 -256 -186q-43 0 -91 16t-142 60q-93 45 -136 60t-81 15q-39 0 -78 -34t-88 -117l-74 104q56 99 117.5 143t138.5 44q54 0 100 -15t134 -59q94 -46 134.5 -62t68.5 -16q82 0 180 152z" />
    <glyph glyph-name="uni00A0" unicode="&#xa0;" horiz-adv-x="491" 
 />
    <glyph glyph-name="exclamdown" unicode="&#xa1;" horiz-adv-x="720" 
d="M463 -385h-205l29 1049h147zM262 815v229h197v-229h-197z" />
    <glyph glyph-name="cent" unicode="&#xa2;" 
d="M475 164l113 747q-126 -6 -198.5 -104.5t-72.5 -294.5q0 -129 42 -219t116 -129zM811 1018l-8 -156q-58 34 -127 43l-115 -768q14 -4 39 -4q106 0 211 55l8 -157q-41 -18 -103 -31.5t-116 -13.5q-41 0 -61 4l-39 -252h-90l41 270q-153 43 -233.5 178.5t-80.5 325.5
q0 254 124.5 400.5t342.5 146.5h6l35 235h90l-37 -243q59 -9 113 -33z" />
    <glyph glyph-name="sterling" unicode="&#xa3;" 
d="M106 0v147h144v541h-144v131h144v174q0 118 33.5 206.5t92.5 141t132 78t160 25.5q121 0 239 -47l-18 -156q-37 25 -98.5 44.5t-110.5 19.5q-117 0 -187.5 -74t-70.5 -223v-189h328v-131h-328v-541h473v-147h-789z" />
    <glyph glyph-name="currency" unicode="&#xa4;" 
d="M156 715q0 -152 94.5 -248t241.5 -96t241 96t94 248t-94 248t-241 96t-241.5 -96t-94.5 -248zM92 236l-82 81l107 107q-101 125 -101 291q0 160 101 291l-107 106l82 82l109 -107q125 103 291 103q167 0 292 -103l107 107l82 -82l-107 -106q101 -128 101 -291
q0 -166 -103 -291l109 -107l-82 -81l-107 106q-124 -102 -292 -102q-167 0 -291 102z" />
    <glyph glyph-name="yen" unicode="&#xa5;" 
d="M408 0v291h-312v131h312v147h-312v131h264l-348 730h189l291 -627l290 627h189l-344 -730h260v-131h-307v-147h307v-131h-307v-291h-172z" />
    <glyph glyph-name="brokenbar" unicode="&#xa6;" horiz-adv-x="454" 
d="M150 -358v716h155v-716h-155zM150 666v716h155v-716h-155z" />
    <glyph glyph-name="section" unicode="&#xa7;" 
d="M129 -193l21 160q122 -90 274 -90q100 0 158.5 48t58.5 130q0 92 -98 152l-240 143q-170 102 -170 254q0 77 39 146.5t145 148.5q-137 71 -137 236q0 129 92 219t256 90q60 0 143 -19t117 -41l-20 -157q-120 69 -225 69q-85 0 -138 -43t-53 -114q0 -83 103 -148l184 -117
q121 -77 168 -135t47 -155q0 -42 -19.5 -87.5t-49.5 -83t-56.5 -63.5t-50.5 -45q41 -26 67.5 -53t47 -76.5t20.5 -114.5q0 -152 -106.5 -241.5t-266.5 -89.5q-164 0 -311 77zM305 635q0 -69 56 -125.5t221 -142.5q92 89 92 200q0 70 -56 130t-204 137q-109 -90 -109 -199z
" />
    <glyph glyph-name="dieresis" unicode="&#xa8;" horiz-adv-x="417" 
d="M-37 1260v204h164v-204h-164zM291 1260v204h164v-204h-164z" />
    <glyph glyph-name="copyright" unicode="&#xa9;" horiz-adv-x="1638" 
d="M1081 575h123q-29 -145 -126.5 -230t-231.5 -85q-195 0 -315.5 130t-120.5 325q0 201 116.5 328.5t313.5 127.5q143 0 243 -79.5t121 -225.5h-123q-18 89 -81.5 143t-157.5 54q-139 0 -216 -95.5t-77 -250.5q0 -146 81.5 -247t215.5 -101q94 0 157 56.5t78 149.5zM90 715
q0 148 57.5 283t155.5 233t233 155.5t283 57.5t283 -57.5t233 -155.5t155.5 -233t57.5 -283t-57.5 -283t-155.5 -233t-233 -155.5t-283 -57.5t-283 57.5t-233 155.5t-155.5 233t-57.5 283zM229 715q0 -168 77.5 -305.5t212.5 -215t300 -77.5t300 77.5t212.5 215t77.5 305.5
t-77.5 305.5t-212.5 215t-300 77.5t-300 -77.5t-212.5 -215t-77.5 -305.5z" />
    <glyph glyph-name="ordfeminine" unicode="&#xaa;" horiz-adv-x="606" 
d="M119 1286l-13 107q85 51 201 51q121 0 184.5 -54.5t63.5 -158.5v-326q0 -34 6 -94h-110l-7 88h-4q-21 -44 -69.5 -70t-118.5 -26q-95 0 -151 45.5t-56 132.5q0 107 76 162t244 55h75v41q0 60 -36 85.5t-105 25.5q-119 0 -180 -64zM440 1038v74q-18 4 -78 4
q-99 0 -146.5 -29t-47.5 -90q0 -49 29 -77.5t86 -28.5q69 0 113 44.5t44 102.5z" />
    <glyph glyph-name="guillemotleft" unicode="&#xab;" horiz-adv-x="1024" 
d="M713 111l-230 421l230 422h147l-205 -422l205 -421h-147zM393 111l-229 421l229 422h148l-205 -422l205 -421h-148z" />
    <glyph glyph-name="logicalnot" unicode="&#xac;" horiz-adv-x="1228" 
d="M96 655v140h1037v-562h-140v422h-897z" />
    <glyph glyph-name="uni00AD" unicode="&#xad;" horiz-adv-x="606" 
d="M82 502v147h442v-147h-442z" />
    <glyph glyph-name="registered" unicode="&#xae;" horiz-adv-x="1638" 
d="M541 289v854h327q293 0 293 -240q0 -104 -61 -169.5t-160 -65.5l244 -379h-148l-235 379h-121v-379h-139zM680 1034v-258h166q88 0 132 27.5t44 105.5q0 68 -45.5 96.5t-130.5 28.5h-166zM90 715q0 148 57.5 283t155.5 233t233 155.5t283 57.5t283 -57.5t233 -155.5
t155.5 -233t57.5 -283t-57.5 -283t-155.5 -233t-233 -155.5t-283 -57.5t-283 57.5t-233 155.5t-155.5 233t-57.5 283zM229 715q0 -168 77.5 -305.5t212.5 -215t300 -77.5t300 77.5t212.5 215t77.5 305.5t-77.5 305.5t-212.5 215t-300 77.5t-300 -77.5t-212.5 -215
t-77.5 -305.5z" />
    <glyph glyph-name="macron" unicode="&#xaf;" horiz-adv-x="417" 
d="M-61 1278v123h540v-123h-540z" />
    <glyph glyph-name="degree" unicode="&#xb0;" horiz-adv-x="819" 
d="M86 1120q0 134 95 229t229 95q133 0 228 -95t95 -229t-94.5 -228.5t-228.5 -94.5t-229 95t-95 228zM201 1120q0 -86 61.5 -147.5t147.5 -61.5t147 61.5t61 147.5t-61 147.5t-147 61.5t-147.5 -61.5t-61.5 -147.5z" />
    <glyph glyph-name="plusminus" unicode="&#xb1;" horiz-adv-x="1228" 
d="M96 553v139h449v344h139v-344h449v-139h-449v-346h-139v346h-449zM96 0v139h1037v-139h-1037z" />
    <glyph glyph-name="twosuperior" unicode="&#xb2;" horiz-adv-x="589" 
d="M41 578v94q179 190 265.5 318.5t86.5 209.5q0 58 -35.5 97.5t-101.5 39.5q-40 0 -89 -18t-89 -47l-15 117q113 55 220 55q116 0 182.5 -62t66.5 -155q0 -106 -97 -257t-249 -286h363v-106h-508z" />
    <glyph glyph-name="threesuperior" unicode="&#xb3;" horiz-adv-x="589" 
d="M41 600l10 117q96 -49 178 -49q76 0 132.5 47.5t56.5 120.5q0 60 -48.5 97.5t-131.5 37.5h-86v98h47q102 0 157.5 39t55.5 100t-45 99.5t-115 38.5q-85 0 -170 -50l-12 113q85 35 213 35q114 0 187 -55t73 -158q0 -84 -47.5 -135.5t-124.5 -65.5v-4q84 -9 131 -67.5
t47 -143.5q0 -107 -77.5 -176.5t-223.5 -69.5q-119 0 -207 31z" />
    <glyph glyph-name="acute" unicode="&#xb4;" horiz-adv-x="417" 
d="M106 1188l138 297h202l-208 -297h-132z" />
    <glyph glyph-name="mu" unicode="&#xb5;" horiz-adv-x="987" 
d="M125 -442v1486h172v-673q0 -238 172 -238q103 0 162 72.5t59 210.5v628h172v-819q0 -44 3.5 -122.5t4.5 -102.5h-165l-7 156h-4q-79 -170 -252 -170q-101 0 -141 63h-4v-491h-172z" />
    <glyph glyph-name="paragraph" unicode="&#xb6;" horiz-adv-x="1136" 
d="M498 -256v911q-184 0 -305 110t-121 271q0 195 123 294.5t344 99.5h440v-1686h-131v1571h-219v-1571h-131z" />
    <glyph glyph-name="periodcentered" unicode="&#xb7;" horiz-adv-x="491" 
d="M115 610q0 54 38.5 92.5t92.5 38.5t92.5 -38.5t38.5 -92.5t-38.5 -92.5t-92.5 -38.5t-92.5 38.5t-38.5 92.5z" />
    <glyph glyph-name="cedilla" unicode="&#xb8;" horiz-adv-x="417" 
d="M223 0h90l-84 -123q27 6 60 6q75 0 124.5 -39.5t49.5 -107.5q0 -77 -64 -127.5t-180 -50.5q-88 0 -180 36l29 72q76 -26 129 -26q52 0 85 25.5t33 60.5q0 75 -90 75q-53 0 -88 -14l-31 39z" />
    <glyph glyph-name="onesuperior" unicode="&#xb9;" horiz-adv-x="589" 
d="M258 578v720l-119 -122l-59 92l190 168h127v-858h-139z" />
    <glyph glyph-name="ordmasculine" unicode="&#xba;" horiz-adv-x="643" 
d="M178 1122q0 -225 144 -225q143 0 143 225q0 228 -143 228q-144 0 -144 -228zM39 1122q0 151 72.5 236.5t210.5 85.5t210 -85.5t72 -236.5q0 -150 -72 -234.5t-210 -84.5t-210.5 85t-72.5 234z" />
    <glyph glyph-name="guillemotright" unicode="&#xbb;" horiz-adv-x="1024" 
d="M164 111l205 421l-205 422h147l230 -422l-230 -421h-147zM483 111l205 421l-205 422h148l229 -422l-229 -421h-148z" />
    <glyph glyph-name="onequarter" unicode="&#xbc;" horiz-adv-x="1476" 
d="M1233 0v184h-365v113l334 561h162v-575h100v-99h-100v-184h-131zM1233 283v452h-4l-250 -452h254zM352 -68l641 1565h131l-641 -1565h-131zM258 578v720l-119 -122l-59 92l190 168h127v-858h-139z" />
    <glyph glyph-name="onehalf" unicode="&#xbd;" horiz-adv-x="1476" 
d="M352 -68l641 1565h131l-641 -1565h-131zM258 578v720l-119 -122l-59 92l190 168h127v-858h-139zM928 0v94q352 373 352 529q0 58 -35.5 97.5t-101.5 39.5q-40 0 -89 -18.5t-89 -47.5l-15 117q113 55 219 55q116 0 183 -62t67 -155q0 -106 -97 -257t-249 -286h363v-106
h-508z" />
    <glyph glyph-name="threequarters" unicode="&#xbe;" horiz-adv-x="1476" 
d="M1233 0v184h-365v113l334 561h162v-575h100v-99h-100v-184h-131zM1233 283v452h-4l-250 -452h254zM352 -68l641 1565h131l-641 -1565h-131zM41 600l10 117q96 -49 178 -49q76 0 132.5 47.5t56.5 120.5q0 60 -48.5 97.5t-131.5 37.5h-86v98h47q102 0 157.5 39t55.5 100
t-45 99.5t-115 38.5q-85 0 -170 -50l-12 113q85 35 213 35q114 0 187 -55t73 -158q0 -84 -47.5 -135.5t-124.5 -65.5v-4q84 -9 131 -67.5t47 -143.5q0 -107 -77.5 -176.5t-223.5 -69.5q-119 0 -207 31z" />
    <glyph glyph-name="questiondown" unicode="&#xbf;" horiz-adv-x="909" 
d="M410 674h155q0 -144 -24 -215t-115 -185q-68 -86 -95.5 -149t-27.5 -137q0 -102 61.5 -167t155.5 -65t234 70l8 -168q-127 -57 -264 -57q-173 0 -274 92t-101 260q0 156 104 311l119 174q41 57 52.5 98.5t11.5 137.5zM586 1044v-229h-197v229h197z" />
    <glyph glyph-name="Agrave" unicode="&#xc0;" horiz-adv-x="1175" 
d="M496 1430h196l467 -1430h-188l-115 373h-545l-114 -373h-181zM360 528h449l-219 713h-4zM559 1499l-209 297h203l137 -297h-131z" />
    <glyph glyph-name="Aacute" unicode="&#xc1;" horiz-adv-x="1175" 
d="M496 1430h196l467 -1430h-188l-115 373h-545l-114 -373h-181zM360 528h449l-219 713h-4zM485 1499l138 297h202l-209 -297h-131z" />
    <glyph glyph-name="Acircumflex" unicode="&#xc2;" horiz-adv-x="1175" 
d="M496 1430h196l467 -1430h-188l-115 373h-545l-114 -373h-181zM360 528h449l-219 713h-4zM305 1499l205 297h156l204 -297h-155l-127 187l-127 -187h-156z" />
    <glyph glyph-name="Atilde" unicode="&#xc3;" horiz-adv-x="1175" 
d="M496 1430h196l467 -1430h-188l-115 373h-545l-114 -373h-181zM360 528h449l-219 713h-4zM780 1765h107q-37 -219 -174 -219q-54 0 -142 43q-71 35 -96 35q-31 0 -53.5 -21t-26.5 -67h-106q11 106 60 162.5t134 56.5q54 0 156 -51q55 -27 72 -27q50 0 69 88z" />
    <glyph glyph-name="Adieresis" unicode="&#xc4;" horiz-adv-x="1175" 
d="M496 1430h196l467 -1430h-188l-115 373h-545l-114 -373h-181zM360 528h449l-219 713h-4zM342 1571v205h164v-205h-164zM670 1571v205h164v-205h-164z" />
    <glyph glyph-name="Aring" unicode="&#xc5;" horiz-adv-x="1175" 
d="M496 1430h196l467 -1430h-188l-115 373h-545l-114 -373h-181zM360 528h449l-219 713h-4zM375 1690q0 88 62.5 150.5t150.5 62.5t150.5 -62.5t62.5 -150.5t-62.5 -150.5t-150.5 -62.5t-150.5 62.5t-62.5 150.5zM469 1690q0 -50 34.5 -84.5t84.5 -34.5t84.5 34.5t34.5 84.5
q0 49 -34.5 83.5t-84.5 34.5t-84.5 -34.5t-34.5 -83.5z" />
    <glyph glyph-name="AE" unicode="&#xc6;" horiz-adv-x="1593" 
d="M16 0l713 1430h748v-156h-453v-455h428v-155h-428v-508h471v-156h-651v373h-445l-182 -373h-201zM840 1298l-373 -770h377v770h-4z" />
    <glyph glyph-name="Ccedilla" unicode="&#xc7;" horiz-adv-x="1099" 
d="M1001 209v-180q-137 -43 -260 -43q-37 0 -53 2l-76 -111q27 6 60 6q75 0 124.5 -39.5t49.5 -107.5q0 -77 -64 -127.5t-180 -50.5q-88 0 -180 36l29 72q76 -26 129 -26q52 0 85 25.5t33 60.5q0 75 -90 75q-53 0 -88 -14l-31 39l115 172q-104 19 -188.5 67t-143 115.5
t-98 154t-58 182t-18.5 200.5q0 331 175 529t458 198q168 0 270 -51v-176q-113 71 -268 71q-70 0 -135.5 -22t-122 -66.5t-98.5 -107t-66 -149.5t-24 -189q0 -286 115.5 -449.5t342.5 -163.5q139 0 256 68z" />
    <glyph glyph-name="Egrave" unicode="&#xc8;" horiz-adv-x="948" 
d="M158 0v1430h665v-156h-485v-455h463v-155h-463v-508h512v-156h-692zM446 1499l-208 297h202l138 -297h-132z" />
    <glyph glyph-name="Eacute" unicode="&#xc9;" horiz-adv-x="948" 
d="M158 0v1430h665v-156h-485v-455h463v-155h-463v-508h512v-156h-692zM373 1499l137 297h203l-209 -297h-131z" />
    <glyph glyph-name="Ecircumflex" unicode="&#xca;" horiz-adv-x="948" 
d="M158 0v1430h665v-156h-485v-455h463v-155h-463v-508h512v-156h-692zM193 1499l204 297h156l205 -297h-156l-127 187l-127 -187h-155z" />
    <glyph glyph-name="Edieresis" unicode="&#xcb;" horiz-adv-x="948" 
d="M158 0v1430h665v-156h-485v-455h463v-155h-463v-508h512v-156h-692zM229 1571v205h164v-205h-164zM557 1571v205h164v-205h-164z" />
    <glyph glyph-name="Igrave" unicode="&#xcc;" horiz-adv-x="495" 
d="M158 0v1430h180v-1430h-180zM219 1499l-209 297h203l137 -297h-131z" />
    <glyph glyph-name="Iacute" unicode="&#xcd;" horiz-adv-x="495" 
d="M158 0v1430h180v-1430h-180zM145 1499l138 297h202l-209 -297h-131z" />
    <glyph glyph-name="Icircumflex" unicode="&#xce;" horiz-adv-x="495" 
d="M158 0v1430h180v-1430h-180zM-35 1499l205 297h156l204 -297h-155l-127 187l-127 -187h-156z" />
    <glyph glyph-name="Idieresis" unicode="&#xcf;" horiz-adv-x="495" 
d="M158 0v1430h180v-1430h-180zM2 1571v205h164v-205h-164zM330 1571v205h164v-205h-164z" />
    <glyph glyph-name="Eth" unicode="&#xd0;" horiz-adv-x="1175" 
d="M137 0v692h-157v131h157v607h312q232 0 380 -103q52 -36 96 -85.5t83.5 -120.5t62.5 -170t23 -214q0 -106 -17.5 -198.5t-53.5 -176t-95 -149.5t-139 -114t-188.5 -73.5t-240.5 -25.5h-223zM317 1274v-451h330v-131h-330v-536h109q234 0 356.5 151.5t122.5 429.5
q0 116 -26 210.5t-81 169.5t-149.5 116t-222.5 41h-109z" />
    <glyph glyph-name="Ntilde" unicode="&#xd1;" horiz-adv-x="1253" 
d="M158 0v1430h223l539 -1180h4v1180h172v-1430h-224l-538 1171h-4v-1171h-172zM819 1765h107q-37 -219 -174 -219q-54 0 -142 43q-71 35 -96 35q-31 0 -53.5 -21t-26.5 -67h-106q11 106 60 162.5t134 56.5q54 0 156 -51q55 -27 72 -27q50 0 69 88z" />
    <glyph glyph-name="Ograve" unicode="&#xd2;" horiz-adv-x="1253" 
d="M98 700q0 366 140 555t397 189q239 0 379.5 -192.5t140.5 -522.5q0 -366 -140 -554.5t-397 -188.5q-239 0 -379.5 192t-140.5 522zM287 700q0 -113 18.5 -211t56 -180t103.5 -129t153 -47q73 0 134 32t110.5 100t77 186t27.5 278q0 113 -18.5 211.5t-56.5 180t-104 128.5
t-153 47q-73 0 -134 -32t-110 -100t-76.5 -186t-27.5 -278zM598 1499l-209 297h203l137 -297h-131z" />
    <glyph glyph-name="Oacute" unicode="&#xd3;" horiz-adv-x="1253" 
d="M98 700q0 366 140 555t397 189q239 0 379.5 -192.5t140.5 -522.5q0 -366 -140 -554.5t-397 -188.5q-239 0 -379.5 192t-140.5 522zM287 700q0 -113 18.5 -211t56 -180t103.5 -129t153 -47q73 0 134 32t110.5 100t77 186t27.5 278q0 113 -18.5 211.5t-56.5 180t-104 128.5
t-153 47q-73 0 -134 -32t-110 -100t-76.5 -186t-27.5 -278zM524 1499l138 297h202l-209 -297h-131z" />
    <glyph glyph-name="Ocircumflex" unicode="&#xd4;" horiz-adv-x="1253" 
d="M98 700q0 366 140 555t397 189q239 0 379.5 -192.5t140.5 -522.5q0 -366 -140 -554.5t-397 -188.5q-239 0 -379.5 192t-140.5 522zM287 700q0 -113 18.5 -211t56 -180t103.5 -129t153 -47q73 0 134 32t110.5 100t77 186t27.5 278q0 113 -18.5 211.5t-56.5 180t-104 128.5
t-153 47q-73 0 -134 -32t-110 -100t-76.5 -186t-27.5 -278zM344 1499l205 297h156l204 -297h-155l-127 187l-127 -187h-156z" />
    <glyph glyph-name="Otilde" unicode="&#xd5;" horiz-adv-x="1253" 
d="M98 700q0 366 140 555t397 189q239 0 379.5 -192.5t140.5 -522.5q0 -366 -140 -554.5t-397 -188.5q-239 0 -379.5 192t-140.5 522zM287 700q0 -113 18.5 -211t56 -180t103.5 -129t153 -47q73 0 134 32t110.5 100t77 186t27.5 278q0 113 -18.5 211.5t-56.5 180t-104 128.5
t-153 47q-73 0 -134 -32t-110 -100t-76.5 -186t-27.5 -278zM819 1765h107q-37 -219 -174 -219q-54 0 -142 43q-71 35 -96 35q-31 0 -53.5 -21t-26.5 -67h-106q11 106 60 162.5t134 56.5q54 0 156 -51q55 -27 72 -27q50 0 69 88z" />
    <glyph glyph-name="Odieresis" unicode="&#xd6;" horiz-adv-x="1253" 
d="M98 700q0 366 140 555t397 189q239 0 379.5 -192.5t140.5 -522.5q0 -366 -140 -554.5t-397 -188.5q-239 0 -379.5 192t-140.5 522zM287 700q0 -113 18.5 -211t56 -180t103.5 -129t153 -47q73 0 134 32t110.5 100t77 186t27.5 278q0 113 -18.5 211.5t-56.5 180t-104 128.5
t-153 47q-73 0 -134 -32t-110 -100t-76.5 -186t-27.5 -278zM381 1571v205h164v-205h-164zM709 1571v205h163v-205h-163z" />
    <glyph glyph-name="multiply" unicode="&#xd7;" horiz-adv-x="1228" 
d="M244 47l-101 103l369 368l-369 369l101 102l370 -368l371 368l100 -102l-368 -369l368 -368l-100 -103l-371 369z" />
    <glyph glyph-name="Oslash" unicode="&#xd8;" horiz-adv-x="1253" 
d="M326 403l565 715q-83 178 -256 178q-73 0 -134 -32t-110 -100t-76.5 -186t-27.5 -278q0 -170 39 -297zM928 1026l-566 -715q83 -178 256 -178q73 0 134 32t110.5 100t77 186t27.5 278q0 170 -39 297zM27 25l172 217q-101 182 -101 458q0 366 140 555t397 189
q229 0 371 -180l153 194l68 -53l-172 -217q100 -180 100 -459q0 -366 -140 -554.5t-397 -188.5q-232 0 -370 180l-154 -195z" />
    <glyph glyph-name="Ugrave" unicode="&#xd9;" horiz-adv-x="1212" 
d="M1055 1430v-904q0 -112 -11.5 -179.5t-46.5 -139.5q-49 -98 -147 -159.5t-244 -61.5t-244 61.5t-147 159.5q-35 71 -46 138.5t-11 180.5v904h180v-930q0 -169 71 -268t197 -99t197 99t71 268v930h181zM578 1499l-209 297h202l138 -297h-131z" />
    <glyph glyph-name="Uacute" unicode="&#xda;" horiz-adv-x="1212" 
d="M1055 1430v-904q0 -112 -11.5 -179.5t-46.5 -139.5q-49 -98 -147 -159.5t-244 -61.5t-244 61.5t-147 159.5q-35 71 -46 138.5t-11 180.5v904h180v-930q0 -169 71 -268t197 -99t197 99t71 268v930h181zM504 1499l137 297h203l-209 -297h-131z" />
    <glyph glyph-name="Ucircumflex" unicode="&#xdb;" horiz-adv-x="1212" 
d="M1055 1430v-904q0 -112 -11.5 -179.5t-46.5 -139.5q-49 -98 -147 -159.5t-244 -61.5t-244 61.5t-147 159.5q-35 71 -46 138.5t-11 180.5v904h180v-930q0 -169 71 -268t197 -99t197 99t71 268v930h181zM324 1499l204 297h156l205 -297h-156l-127 187l-127 -187h-155z" />
    <glyph glyph-name="Udieresis" unicode="&#xdc;" horiz-adv-x="1212" 
d="M1055 1430v-904q0 -112 -11.5 -179.5t-46.5 -139.5q-49 -98 -147 -159.5t-244 -61.5t-244 61.5t-147 159.5q-35 71 -46 138.5t-11 180.5v904h180v-930q0 -169 71 -268t197 -99t197 99t71 268v930h181zM360 1571v205h164v-205h-164zM688 1571v205h164v-205h-164z" />
    <glyph glyph-name="Yacute" unicode="&#xdd;" horiz-adv-x="1060" 
d="M440 0v600l-428 830h205l315 -633l318 633h199l-428 -830v-600h-181zM428 1499l137 297h203l-209 -297h-131z" />
    <glyph glyph-name="Thorn" unicode="&#xde;" horiz-adv-x="985" 
d="M158 0v1430h180v-246h164q104 0 177 -27.5t132 -83.5q113 -110 113 -295q0 -209 -118.5 -317.5t-346.5 -108.5h-121v-352h-180zM338 1036v-536h98q158 0 228.5 68t70.5 194q0 274 -295 274h-102z" />
    <glyph glyph-name="germandbls" unicode="&#xdf;" horiz-adv-x="985" 
d="M117 0v1116q0 100 21 179.5t65 140t117.5 93t173.5 32.5q181 0 271.5 -110t90.5 -290q0 -131 -50.5 -206t-187.5 -132v-4q75 -9 126 -30.5t90.5 -65.5t58 -119t18.5 -186q0 -69 -12.5 -131t-41 -117.5t-71 -96t-105.5 -64t-140 -23.5q-73 0 -138 14l9 150q69 -25 133 -25
q95 0 144.5 59t49.5 205q0 66 -6 115.5t-16 85.5t-30.5 61t-42 40.5t-57.5 24.5t-70 13t-87 6v148q143 0 198.5 63.5t55.5 241.5q0 233 -190 233q-65 0 -108 -26t-63 -75t-27 -99t-7 -119v-1102h-172z" />
    <glyph glyph-name="agrave" unicode="&#xe0;" horiz-adv-x="948" 
d="M184 811l-18 162q134 86 295 86q101 0 171.5 -31t106.5 -67q42 -42 66 -99t24 -157v-545q0 -77 9 -160h-156l-10 141h-4q-91 -155 -293 -155q-134 0 -217.5 77.5t-83.5 223.5q0 163 118 257.5t373 94.5h101v47q0 63 -7.5 99.5t-31.5 68.5q-49 66 -174 66
q-79 0 -152 -29.5t-117 -79.5zM666 381v131q-31 4 -121 4q-146 0 -222.5 -60.5t-76.5 -156.5q0 -86 44.5 -134t131.5 -48q109 0 176.5 76.5t67.5 187.5zM446 1188l-208 297h202l138 -297h-132z" />
    <glyph glyph-name="aacute" unicode="&#xe1;" horiz-adv-x="948" 
d="M184 811l-18 162q134 86 295 86q101 0 171.5 -31t106.5 -67q42 -42 66 -99t24 -157v-545q0 -77 9 -160h-156l-10 141h-4q-91 -155 -293 -155q-134 0 -217.5 77.5t-83.5 223.5q0 163 118 257.5t373 94.5h101v47q0 63 -7.5 99.5t-31.5 68.5q-49 66 -174 66
q-79 0 -152 -29.5t-117 -79.5zM666 381v131q-31 4 -121 4q-146 0 -222.5 -60.5t-76.5 -156.5q0 -86 44.5 -134t131.5 -48q109 0 176.5 76.5t67.5 187.5zM373 1188l137 297h203l-209 -297h-131z" />
    <glyph glyph-name="acircumflex" unicode="&#xe2;" horiz-adv-x="948" 
d="M184 811l-18 162q134 86 295 86q101 0 171.5 -31t106.5 -67q42 -42 66 -99t24 -157v-545q0 -77 9 -160h-156l-10 141h-4q-91 -155 -293 -155q-134 0 -217.5 77.5t-83.5 223.5q0 163 118 257.5t373 94.5h101v47q0 63 -7.5 99.5t-31.5 68.5q-49 66 -174 66
q-79 0 -152 -29.5t-117 -79.5zM666 381v131q-31 4 -121 4q-146 0 -222.5 -60.5t-76.5 -156.5q0 -86 44.5 -134t131.5 -48q109 0 176.5 76.5t67.5 187.5zM193 1188l204 297h156l205 -297h-156l-127 186l-127 -186h-155z" />
    <glyph glyph-name="atilde" unicode="&#xe3;" horiz-adv-x="948" 
d="M184 811l-18 162q134 86 295 86q101 0 171.5 -31t106.5 -67q42 -42 66 -99t24 -157v-545q0 -77 9 -160h-156l-10 141h-4q-91 -155 -293 -155q-134 0 -217.5 77.5t-83.5 223.5q0 163 118 257.5t373 94.5h101v47q0 63 -7.5 99.5t-31.5 68.5q-49 66 -174 66
q-79 0 -152 -29.5t-117 -79.5zM666 381v131q-31 4 -121 4q-146 0 -222.5 -60.5t-76.5 -156.5q0 -86 44.5 -134t131.5 -48q109 0 176.5 76.5t67.5 187.5zM668 1454h106q-37 -219 -174 -219q-53 0 -141 43q-71 35 -97 35q-31 0 -53 -21t-26 -67h-107q11 105 60.5 162t134.5 57
q53 0 155 -51q55 -27 72 -27q51 0 70 88z" />
    <glyph glyph-name="adieresis" unicode="&#xe4;" horiz-adv-x="948" 
d="M184 811l-18 162q134 86 295 86q101 0 171.5 -31t106.5 -67q42 -42 66 -99t24 -157v-545q0 -77 9 -160h-156l-10 141h-4q-91 -155 -293 -155q-134 0 -217.5 77.5t-83.5 223.5q0 163 118 257.5t373 94.5h101v47q0 63 -7.5 99.5t-31.5 68.5q-49 66 -174 66
q-79 0 -152 -29.5t-117 -79.5zM666 381v131q-31 4 -121 4q-146 0 -222.5 -60.5t-76.5 -156.5q0 -86 44.5 -134t131.5 -48q109 0 176.5 76.5t67.5 187.5zM229 1260v204h164v-204h-164zM557 1260v204h164v-204h-164z" />
    <glyph glyph-name="aring" unicode="&#xe5;" horiz-adv-x="948" 
d="M184 811l-18 162q134 86 295 86q101 0 171.5 -31t106.5 -67q42 -42 66 -99t24 -157v-545q0 -77 9 -160h-156l-10 141h-4q-91 -155 -293 -155q-134 0 -217.5 77.5t-83.5 223.5q0 163 118 257.5t373 94.5h101v47q0 63 -7.5 99.5t-31.5 68.5q-49 66 -174 66
q-79 0 -152 -29.5t-117 -79.5zM666 381v131q-31 4 -121 4q-146 0 -222.5 -60.5t-76.5 -156.5q0 -86 44.5 -134t131.5 -48q109 0 176.5 76.5t67.5 187.5zM287 1368q0 88 62.5 150.5t150.5 62.5t150.5 -62.5t62.5 -150.5t-62.5 -150.5t-150.5 -62.5t-150.5 62.5t-62.5 150.5z
M381 1368q0 -50 34.5 -84.5t84.5 -34.5q49 0 83.5 34.5t34.5 84.5t-34.5 84.5t-83.5 34.5q-50 0 -84.5 -34.5t-34.5 -84.5z" />
    <glyph glyph-name="ae" unicode="&#xe6;" horiz-adv-x="1478" 
d="M823 647h418q0 132 -52 206.5t-153 74.5q-90 0 -150 -70t-63 -211zM184 811l-18 162q134 86 295 86q219 0 297 -176q90 176 289 176q175 0 270.5 -131.5t95.5 -364.5v-47h-590q0 -211 70 -305t215 -94q60 0 125.5 25t114.5 61l8 -156q-128 -61 -293 -61q-127 0 -215 55
t-125 158q-56 -111 -141.5 -162t-206.5 -51q-134 0 -217.5 77.5t-83.5 223.5q0 168 117.5 264t373.5 96h103v33q0 117 -59.5 178.5t-162.5 61.5q-75 0 -146.5 -29.5t-115.5 -79.5zM668 449v67h-66q-188 0 -272 -58.5t-84 -170.5q0 -77 45 -123.5t131 -46.5q114 0 180 87.5
t66 244.5z" />
    <glyph glyph-name="ccedilla" unicode="&#xe7;" horiz-adv-x="796" 
d="M276 -406l29 72q76 -26 129 -26q52 0 85.5 25.5t33.5 60.5q0 75 -90 75q-53 0 -88 -14l-31 39l113 168q-125 17 -213 90.5t-129 182t-41 245.5q0 253 123 400t335 147q132 0 216 -41l-9 -156q-88 49 -198 49q-133 0 -210 -97.5t-77 -301.5q0 -178 77.5 -278.5
t205.5 -100.5q106 0 211 55l8 -157q-100 -45 -215 -45l-74 -109q27 6 59 6q75 0 124.5 -39.5t49.5 -107.5q0 -77 -64 -127.5t-179 -50.5q-89 0 -181 36z" />
    <glyph glyph-name="egrave" unicode="&#xe8;" horiz-adv-x="909" 
d="M844 471h-590q0 -180 71 -267t214 -87q60 0 125 25t114 61l8 -156q-128 -61 -292 -61q-204 0 -312 142.5t-108 393.5q0 249 105 393t298 144q175 0 271 -132t96 -364v-92zM254 602h418q0 326 -205 326q-92 0 -151 -77.5t-62 -248.5zM426 1188l-209 297h203l137 -297h-131
z" />
    <glyph glyph-name="eacute" unicode="&#xe9;" horiz-adv-x="909" 
d="M844 471h-590q0 -180 71 -267t214 -87q60 0 125 25t114 61l8 -156q-128 -61 -292 -61q-204 0 -312 142.5t-108 393.5q0 249 105 393t298 144q175 0 271 -132t96 -364v-92zM254 602h418q0 326 -205 326q-92 0 -151 -77.5t-62 -248.5zM352 1188l137 297h203l-209 -297h-131
z" />
    <glyph glyph-name="ecircumflex" unicode="&#xea;" horiz-adv-x="909" 
d="M844 471h-590q0 -180 71 -267t214 -87q60 0 125 25t114 61l8 -156q-128 -61 -292 -61q-204 0 -312 142.5t-108 393.5q0 249 105 393t298 144q175 0 271 -132t96 -364v-92zM254 602h418q0 326 -205 326q-92 0 -151 -77.5t-62 -248.5zM172 1188l205 297h155l205 -297h-155
l-127 186l-127 -186h-156z" />
    <glyph glyph-name="edieresis" unicode="&#xeb;" horiz-adv-x="909" 
d="M844 471h-590q0 -180 71 -267t214 -87q60 0 125 25t114 61l8 -156q-128 -61 -292 -61q-204 0 -312 142.5t-108 393.5q0 249 105 393t298 144q175 0 271 -132t96 -364v-92zM254 602h418q0 326 -205 326q-92 0 -151 -77.5t-62 -248.5zM209 1260v204h164v-204h-164z
M537 1260v204h163v-204h-163z" />
    <glyph glyph-name="igrave" unicode="&#xec;" horiz-adv-x="454" 
d="M141 0v1044h172v-1044h-172zM199 1188l-209 297h203l137 -297h-131z" />
    <glyph glyph-name="iacute" unicode="&#xed;" horiz-adv-x="454" 
d="M141 0v1044h172v-1044h-172zM125 1188l137 297h203l-209 -297h-131z" />
    <glyph glyph-name="icircumflex" unicode="&#xee;" horiz-adv-x="454" 
d="M141 0v1044h172v-1044h-172zM-55 1188l205 297h155l205 -297h-156l-127 186l-127 -186h-155z" />
    <glyph glyph-name="idieresis" unicode="&#xef;" horiz-adv-x="454" 
d="M141 0v1044h172v-1044h-172zM-18 1260v204h163v-204h-163zM309 1260v204h164v-204h-164z" />
    <glyph glyph-name="eth" unicode="&#xf0;" horiz-adv-x="987" 
d="M254 522q0 -397 240 -397q239 0 239 397q0 398 -239 398q-240 0 -240 -398zM276 1251l-67 56l160 96q-77 50 -176 80l61 78q101 -19 231 -88l146 88l67 -56l-141 -86q356 -255 356 -796q0 -323 -102 -480t-317 -157q-204 0 -312 142.5t-108 393.5t108.5 394t311.5 143
q56 0 101.5 -16.5t66 -33t45.5 -42.5l4 4q-39 123 -112.5 222t-162.5 155z" />
    <glyph glyph-name="ntilde" unicode="&#xf1;" horiz-adv-x="987" 
d="M125 0v819q0 44 -3.5 122.5t-4.5 102.5h166l6 -155h4q79 170 264 170q142 0 223.5 -84t81.5 -250v-725h-172v674q0 237 -172 237q-104 0 -162.5 -72t-58.5 -210v-629h-172zM686 1454h107q-37 -219 -175 -219q-53 0 -141 43q-71 35 -96 35q-31 0 -53.5 -21t-26.5 -67h-106
q11 106 60 162.5t134 56.5q54 0 156 -51q55 -27 71 -27q51 0 70 88z" />
    <glyph glyph-name="ograve" unicode="&#xf2;" horiz-adv-x="987" 
d="M254 522q0 -397 240 -397q239 0 239 397q0 398 -239 398q-240 0 -240 -398zM74 522q0 251 108.5 394t311.5 143t311 -143t108 -394t-108 -393.5t-311 -142.5q-204 0 -312 142.5t-108 393.5zM465 1188l-209 297h203l137 -297h-131z" />
    <glyph glyph-name="oacute" unicode="&#xf3;" horiz-adv-x="987" 
d="M254 522q0 -397 240 -397q239 0 239 397q0 398 -239 398q-240 0 -240 -398zM74 522q0 251 108.5 394t311.5 143t311 -143t108 -394t-108 -393.5t-311 -142.5q-204 0 -312 142.5t-108 393.5zM391 1188l137 297h203l-209 -297h-131z" />
    <glyph glyph-name="ocircumflex" unicode="&#xf4;" horiz-adv-x="987" 
d="M254 522q0 -397 240 -397q239 0 239 397q0 398 -239 398q-240 0 -240 -398zM74 522q0 251 108.5 394t311.5 143t311 -143t108 -394t-108 -393.5t-311 -142.5q-204 0 -312 142.5t-108 393.5zM211 1188l205 297h155l205 -297h-155l-127 186l-127 -186h-156z" />
    <glyph glyph-name="otilde" unicode="&#xf5;" horiz-adv-x="987" 
d="M254 522q0 -397 240 -397q239 0 239 397q0 398 -239 398q-240 0 -240 -398zM74 522q0 251 108.5 394t311.5 143t311 -143t108 -394t-108 -393.5t-311 -142.5q-204 0 -312 142.5t-108 393.5zM686 1454h107q-37 -219 -175 -219q-53 0 -141 43q-71 35 -96 35
q-31 0 -53.5 -21t-26.5 -67h-106q11 106 60 162.5t134 56.5q54 0 156 -51q55 -27 71 -27q51 0 70 88z" />
    <glyph glyph-name="odieresis" unicode="&#xf6;" horiz-adv-x="987" 
d="M254 522q0 -397 240 -397q239 0 239 397q0 398 -239 398q-240 0 -240 -398zM74 522q0 251 108.5 394t311.5 143t311 -143t108 -394t-108 -393.5t-311 -142.5q-204 0 -312 142.5t-108 393.5zM248 1260v204h164v-204h-164zM575 1260v204h164v-204h-164z" />
    <glyph glyph-name="divide" unicode="&#xf7;" horiz-adv-x="1228" 
d="M96 449v139h1037v-139h-1037zM483 920q0 54 38.5 92.5t92.5 38.5t92.5 -38.5t38.5 -92.5t-38.5 -93t-92.5 -39t-92.5 39t-38.5 93zM483 117q0 54 38.5 92.5t92.5 38.5t92.5 -38.5t38.5 -92.5t-38.5 -92.5t-92.5 -38.5t-92.5 38.5t-38.5 92.5z" />
    <glyph glyph-name="oslash" unicode="&#xf8;" horiz-adv-x="987" 
d="M279 313l397 504q-62 103 -182 103q-240 0 -240 -398q0 -123 25 -209zM109 -27l-62 47l113 144q-86 133 -86 358q0 251 108.5 394t311.5 143q177 0 284 -113l101 125l61 -47l-115 -141q88 -131 88 -361q0 -251 -108 -393.5t-311 -142.5q-183 0 -285 114zM709 733
l-398 -504q61 -104 183 -104q239 0 239 397q0 126 -24 211z" />
    <glyph glyph-name="ugrave" unicode="&#xf9;" horiz-adv-x="987" 
d="M862 1044v-819q0 -44 3.5 -122.5t4.5 -102.5h-165l-7 156h-4q-79 -170 -264 -170q-142 0 -223.5 83.5t-81.5 249.5v725h172v-673q0 -238 172 -238q103 0 162 72.5t59 210.5v628h172zM465 1188l-209 297h203l137 -297h-131z" />
    <glyph glyph-name="uacute" unicode="&#xfa;" horiz-adv-x="987" 
d="M862 1044v-819q0 -44 3.5 -122.5t4.5 -102.5h-165l-7 156h-4q-79 -170 -264 -170q-142 0 -223.5 83.5t-81.5 249.5v725h172v-673q0 -238 172 -238q103 0 162 72.5t59 210.5v628h172zM391 1188l137 297h203l-209 -297h-131z" />
    <glyph glyph-name="ucircumflex" unicode="&#xfb;" horiz-adv-x="987" 
d="M862 1044v-819q0 -44 3.5 -122.5t4.5 -102.5h-165l-7 156h-4q-79 -170 -264 -170q-142 0 -223.5 83.5t-81.5 249.5v725h172v-673q0 -238 172 -238q103 0 162 72.5t59 210.5v628h172zM211 1188l205 297h155l205 -297h-155l-127 186l-127 -186h-156z" />
    <glyph glyph-name="udieresis" unicode="&#xfc;" horiz-adv-x="987" 
d="M862 1044v-819q0 -44 3.5 -122.5t4.5 -102.5h-165l-7 156h-4q-79 -170 -264 -170q-142 0 -223.5 83.5t-81.5 249.5v725h172v-673q0 -238 172 -238q103 0 162 72.5t59 210.5v628h172zM248 1260v204h164v-204h-164zM575 1260v204h164v-204h-164z" />
    <glyph glyph-name="yacute" unicode="&#xfd;" horiz-adv-x="833" 
d="M815 1044l-362 -1257q-38 -132 -97.5 -187t-158.5 -55q-67 0 -117 13l8 155q45 -20 94 -20q41 0 68 27t47 104l41 160l-330 1060h180l234 -851h4l217 851h172zM315 1188l138 297h202l-209 -297h-131z" />
    <glyph glyph-name="thorn" unicode="&#xfe;" horiz-adv-x="985" 
d="M281 522q0 -199 56 -298t173 -99t173 99t56 298t-56 298.5t-173 99.5t-173 -99.5t-56 -298.5zM109 -442v1978h172v-637h4q80 160 266 160q166 0 263 -137t97 -400t-97 -399.5t-263 -136.5q-89 0 -151 37t-115 120h-4v-585h-172z" />
    <glyph glyph-name="ydieresis" unicode="&#xff;" horiz-adv-x="833" 
d="M815 1044l-362 -1257q-38 -132 -97.5 -187t-158.5 -55q-67 0 -117 13l8 155q45 -20 94 -20q41 0 68 27t47 104l41 160l-330 1060h180l234 -851h4l217 851h172zM172 1260v204h164v-204h-164zM500 1260v204h164v-204h-164z" />
    <glyph glyph-name="dotlessi" unicode="&#x131;" horiz-adv-x="454" 
d="M141 0v1044h172v-1044h-172z" />
    <glyph glyph-name="Lslash" unicode="&#x141;" horiz-adv-x="833" 
d="M158 0v569l-138 -131v176l138 131v685h180v-512l260 247v-176l-260 -248v-585h469v-156h-649z" />
    <glyph glyph-name="lslash" unicode="&#x142;" horiz-adv-x="454" 
d="M141 0v633h-4l-137 -178v147l141 178v756h172v-537h4l138 172v-147l-142 -176v-848h-172z" />
    <glyph glyph-name="OE" unicode="&#x152;" horiz-adv-x="1593" 
d="M1477 1430v-156h-453v-455h426v-155h-426v-508h471v-156h-575q-97 0 -156 -4q-23 -1 -82 -5.5t-86 -4.5q-224 0 -361 193t-137 521q0 369 145 556.5t423 187.5q42 0 112 -6q94 -8 142 -8h557zM844 156v1118q-78 22 -185 22q-83 0 -148.5 -32t-117 -100.5t-79 -185.5
t-27.5 -278q0 -559 372 -559q106 0 185 15z" />
    <glyph glyph-name="oe" unicode="&#x153;" horiz-adv-x="1593" 
d="M254 522q0 -199 60.5 -298t189.5 -99t189.5 99t60.5 298t-60.5 298.5t-189.5 99.5t-189.5 -99.5t-60.5 -298.5zM918 602h438q0 164 -52.5 245t-162.5 81q-220 0 -223 -326zM1528 471h-610q3 -354 284 -354q142 0 260 86l8 -156q-128 -61 -292 -61q-247 0 -342 225
q-95 -225 -332 -225q-211 0 -320.5 142t-109.5 394t109.5 394.5t320.5 142.5q127 0 203.5 -52t128.5 -165q52 113 126.5 165t192.5 52q179 0 276 -131.5t97 -364.5v-92z" />
    <glyph glyph-name="Scaron" unicode="&#x160;" horiz-adv-x="909" 
d="M748 1397v-174q-108 65 -244 65q-100 0 -161.5 -60.5t-61.5 -152.5q0 -73 46.5 -127.5t194.5 -140.5q161 -93 228 -191t67 -225q0 -178 -109 -291.5t-307 -113.5q-174 0 -299 61v186q154 -92 273 -92q116 0 185 66.5t69 159.5q0 60 -14.5 100t-63 86t-143.5 104
q-191 115 -253.5 201.5t-62.5 226.5q0 170 113 264.5t284 94.5q149 0 259 -47zM377 1499l-205 297h156l127 -186l127 186h155l-205 -297h-155z" />
    <glyph glyph-name="scaron" unicode="&#x161;" horiz-adv-x="757" 
d="M70 47l10 156q129 -78 246 -78q94 0 146 42t52 105q0 55 -31 93.5t-102 70.5l-115 51q-113 51 -158.5 110.5t-45.5 158.5q0 131 93 217t243 86q126 0 221 -37l-8 -148q-98 46 -205 46q-82 0 -127 -40t-45 -104q0 -60 42.5 -100t133.5 -76l61 -25q207 -83 207 -266
q0 -145 -82.5 -234t-253.5 -89q-163 0 -282 61zM301 1188l-205 297h156l127 -187l127 187h156l-205 -297h-156z" />
    <glyph glyph-name="Ydieresis" unicode="&#x178;" horiz-adv-x="1060" 
d="M440 0v600l-428 830h205l315 -633l318 633h199l-428 -830v-600h-181zM285 1571v205h164v-205h-164zM612 1571v205h164v-205h-164z" />
    <glyph glyph-name="Zcaron" unicode="&#x17d;" horiz-adv-x="948" 
d="M70 0v170l581 1104h-563v156h778v-156l-600 -1118h613v-156h-809zM397 1499l-204 297h155l127 -186l127 186h156l-205 -297h-156z" />
    <glyph glyph-name="zcaron" unicode="&#x17e;" horiz-adv-x="796" 
d="M80 1044h643v-155l-483 -742h493v-147h-670v156l484 741h-467v147zM322 1188l-205 297h155l127 -187l127 187h156l-205 -297h-155z" />
    <glyph glyph-name="florin" unicode="&#x192;" 
d="M45 -424l21 143q69 -26 112 -26q41 0 65.5 28t50.5 125.5t54 290.5l84 576h-180v131h201l26 151q44 249 115 349t199 100q91 0 145 -35l-23 -137q-51 33 -104 33q-67 0 -100 -74.5t-62 -274.5l-16 -112h182v-131h-203l-84 -557q-50 -333 -129 -472t-229 -139
q-45 0 -125 31z" />
    <glyph glyph-name="circumflex" unicode="&#x2c6;" horiz-adv-x="417" 
d="M-74 1188l205 297h156l205 -297h-156l-127 186l-127 -186h-156z" />
    <glyph glyph-name="caron" unicode="&#x2c7;" horiz-adv-x="417" 
d="M131 1188l-205 297h156l127 -187l127 187h156l-205 -297h-156z" />
    <glyph glyph-name="uni02C9" unicode="&#x2c9;" horiz-adv-x="417" 
d="M-61 1278v123h540v-123h-540z" />
    <glyph glyph-name="breve" unicode="&#x2d8;" horiz-adv-x="417" 
d="M-49 1468h106q10 -67 50 -104t102 -37t101.5 37t49.5 104h107q-15 -131 -83 -197.5t-175 -66.5t-175 66.5t-83 197.5z" />
    <glyph glyph-name="dotaccent" unicode="&#x2d9;" horiz-adv-x="417" 
d="M127 1260v204h164v-204h-164z" />
    <glyph glyph-name="ring" unicode="&#x2da;" horiz-adv-x="417" 
d="M-4 1368q0 88 62.5 150.5t150.5 62.5t150.5 -62.5t62.5 -150.5t-62.5 -150.5t-150.5 -62.5t-150.5 62.5t-62.5 150.5zM90 1368q0 -50 35 -84.5t84 -34.5t84 34.5t35 84.5t-35 84.5t-84 34.5t-84 -34.5t-35 -84.5z" />
    <glyph glyph-name="ogonek" unicode="&#x2db;" horiz-adv-x="417" 
d="M373 -334l28 -72q-82 -36 -153 -36q-101 0 -166.5 46t-65.5 134q0 70 63.5 142t174.5 120h90q-84 -50 -132 -118t-48 -138q0 -50 26 -77t70 -27q59 0 113 26z" />
    <glyph glyph-name="tilde" unicode="&#x2dc;" horiz-adv-x="417" 
d="M401 1454h107q-37 -219 -174 -219q-53 0 -141 43q-71 35 -97 35q-31 0 -53.5 -21t-26.5 -67h-106q11 106 60 162.5t134 56.5q54 0 156 -51q55 -27 72 -27q50 0 69 88z" />
    <glyph glyph-name="hungarumlaut" unicode="&#x2dd;" horiz-adv-x="417" 
d="M-57 1188l137 297h203l-209 -297h-131zM270 1188l138 297h202l-209 -297h-131z" />
    <glyph glyph-name="uni03A9" unicode="&#x3a9;" horiz-adv-x="1257" 
d="M340 135v6q-102 111 -168 271t-66 352t69 344t189.5 235.5t270.5 83.5q117 0 215 -54t162 -144.5t99.5 -207.5t35.5 -245q0 -199 -68.5 -366.5t-167.5 -268.5v-6h260v-135h-430v100q104 82 175 250t71 389q0 100 -22.5 195.5t-65 175t-112.5 128t-156 48.5
q-109 0 -193 -72.5t-128 -197.5t-44 -281q0 -208 73.5 -382.5t174.5 -252.5v-100h-432v135h258z" />
    <glyph glyph-name="uni03BC" unicode="&#x3bc;" horiz-adv-x="987" 
d="M125 -442v1486h172v-673q0 -238 172 -238q103 0 162 72.5t59 210.5v628h172v-819q0 -44 3.5 -122.5t4.5 -102.5h-165l-7 156h-4q-79 -170 -252 -170q-101 0 -141 63h-4v-491h-172z" />
    <glyph glyph-name="pi" unicode="&#x3c0;" horiz-adv-x="1030" 
d="M983 905h-137v-620q0 -194 24 -285h-151q-31 60 -31 274v631h-301q-8 -211 -45 -486.5t-84 -418.5h-154q49 162 84.5 430.5t40.5 474.5q-130 0 -188 -20l-23 108q78 56 265 56h714z" />
    <glyph glyph-name="uni2010" unicode="&#x2010;" horiz-adv-x="606" 
d="M82 502v147h442v-147h-442z" />
    <glyph glyph-name="endash" unicode="&#x2013;" horiz-adv-x="1024" 
d="M0 506v139h1024v-139h-1024z" />
    <glyph glyph-name="emdash" unicode="&#x2014;" horiz-adv-x="2048" 
d="M0 506v139h2048v-139h-2048z" />
    <glyph glyph-name="quoteleft" unicode="&#x2018;" horiz-adv-x="491" 
d="M100 1061l136 475h155l-102 -475h-189z" />
    <glyph glyph-name="quoteright" unicode="&#x2019;" horiz-adv-x="491" 
d="M100 1061l103 475h188l-135 -475h-156z" />
    <glyph glyph-name="quotesinglbase" unicode="&#x201a;" horiz-adv-x="491" 
d="M100 -260l103 475h188l-135 -475h-156z" />
    <glyph glyph-name="quotedblleft" unicode="&#x201c;" horiz-adv-x="1024" 
d="M520 1061l135 475h156l-102 -475h-189zM213 1061l135 475h156l-103 -475h-188z" />
    <glyph glyph-name="quotedblright" unicode="&#x201d;" horiz-adv-x="1024" 
d="M213 1061l102 475h189l-135 -475h-156zM520 1061l103 475h188l-135 -475h-156z" />
    <glyph glyph-name="quotedblbase" unicode="&#x201e;" horiz-adv-x="1024" 
d="M213 -260l102 475h189l-135 -475h-156zM520 -260l103 475h188l-135 -475h-156z" />
    <glyph glyph-name="dagger" unicode="&#x2020;" 
d="M414 0v920h-283v139h283v371h155v-371h283v-139h-283v-920h-155z" />
    <glyph glyph-name="daggerdbl" unicode="&#x2021;" 
d="M414 0v344h-283v139h283v463h-283v139h283v345h155v-345h283v-139h-283v-463h283v-139h-283v-344h-155z" />
    <glyph glyph-name="bullet" unicode="&#x2022;" horiz-adv-x="1024" 
d="M154 715q0 149 104.5 253.5t253.5 104.5t253.5 -104.5t104.5 -253.5t-104.5 -254t-253.5 -105t-253.5 105t-104.5 254z" />
    <glyph glyph-name="ellipsis" unicode="&#x2026;" horiz-adv-x="2048" 
d="M244 0v229h196v-229h-196zM926 0v229h196v-229h-196zM1608 0v229h196v-229h-196z" />
    <glyph glyph-name="perthousand" unicode="&#x2030;" horiz-adv-x="1822" 
d="M1393 369q0 -150 27 -209.5t85 -59.5t85.5 59.5t27.5 209.5q0 148 -27.5 208t-85.5 60t-85 -59.5t-27 -208.5zM326 -14l508 1458h104l-510 -1458h-102zM205 1061q0 -150 27 -209t85 -59t85.5 59.5t27.5 208.5q0 148 -27.5 208t-85.5 60t-85 -59.5t-27 -208.5zM1270 369
q0 199 57 291t178 92t178.5 -92.5t57.5 -290.5t-57.5 -290.5t-178.5 -92.5t-178 92t-57 291zM82 1061q0 199 57 291t178 92t178.5 -92.5t57.5 -290.5t-57.5 -290.5t-178.5 -92.5t-178 92t-57 291zM709 369q0 199 57 291t178 92t178.5 -92.5t57.5 -290.5t-57.5 -290.5
t-178.5 -92.5t-178 92t-57 291zM831 369q0 -150 27.5 -209.5t85.5 -59.5t85.5 59.5t27.5 209.5q0 148 -27.5 208t-85.5 60t-85.5 -60t-27.5 -208z" />
    <glyph glyph-name="guilsinglleft" unicode="&#x2039;" horiz-adv-x="569" 
d="M326 111l-230 421l230 422h147l-205 -422l205 -421h-147z" />
    <glyph glyph-name="guilsinglright" unicode="&#x203a;" horiz-adv-x="569" 
d="M96 111l205 421l-205 422h148l229 -422l-229 -421h-148z" />
    <glyph glyph-name="fraction" unicode="&#x2044;" horiz-adv-x="342" 
d="M-215 -68l641 1565h131l-641 -1565h-131z" />
    <glyph glyph-name="Euro" unicode="&#x20ac;" 
d="M995 1391l-32 -164q-25 25 -94.5 43t-114.5 18q-82 0 -150 -30.5t-114.5 -84.5t-77 -121t-47.5 -147h542l-20 -100h-539q-9 -90 0 -180h510l-18 -101h-475q18 -78 49 -143.5t77.5 -120t114 -85t148.5 -30.5q111 0 209 52l12 -174q-118 -37 -232 -37q-121 0 -221 41.5
t-169 115.5t-114 169.5t-65 211.5h-160l21 101h129q-7 108 0 180h-150l21 100h141q20 114 65.5 210t114.5 170.5t168.5 116.5t218.5 42q141 0 252 -53z" />
    <glyph glyph-name="afii61289" unicode="&#x2113;" horiz-adv-x="880" 
d="M770 303l72 -65q-119 -244 -338 -244q-79 0 -138.5 29t-94.5 82t-52.5 118t-19.5 144v26q-17 -14 -51.5 -44t-51.5 -44l-45 92q105 93 146 138v544q0 103 16 186t43.5 137t65 90t78 51.5t85.5 15.5q110 0 168 -90t58 -236q0 -335 -363 -721v-82q1 -157 53 -232t136 -75
q73 0 133 53t100 127zM348 1079v-405q260 318 260 563q0 197 -121 197q-57 0 -98 -85t-41 -270z" />
    <glyph glyph-name="trademark" unicode="&#x2122;" horiz-adv-x="2048" 
d="M377 578v757h-266v95h663v-95h-266v-757h-131zM938 578v852h209l250 -656l250 656h208v-852h-131v741h-4l-280 -741h-88l-279 741h-4v-741h-131z" />
    <glyph glyph-name="Omega" unicode="&#x2126;" horiz-adv-x="1257" 
d="M340 135v6q-102 111 -168 271t-66 352t69 344t189.5 235.5t270.5 83.5q117 0 215 -54t162 -144.5t99.5 -207.5t35.5 -245q0 -199 -68.5 -366.5t-167.5 -268.5v-6h260v-135h-430v100q104 82 175 250t71 389q0 100 -22.5 195.5t-65 175t-112.5 128t-156 48.5
q-109 0 -193 -72.5t-128 -197.5t-44 -281q0 -208 73.5 -382.5t174.5 -252.5v-100h-432v135h258z" />
    <glyph glyph-name="estimated" unicode="&#x212e;" horiz-adv-x="1757" 
d="M1688 694h-1311q-10 0 -10 -8v-397q0 -26 16 -45q98 -101 225.5 -158t270.5 -57q154 0 289.5 64t232.5 177h117q-111 -131 -279 -206.5t-362 -75.5q-219 0 -405.5 97.5t-295 265t-108.5 364.5t108.5 365t295 266t405.5 98q165 0 315.5 -58t259 -155.5t172.5 -232.5
t64 -283v-21zM1391 745v400q0 29 -21 47q-99 97 -224.5 152t-266.5 55t-268.5 -56.5t-225.5 -156.5q-18 -18 -18 -49v-392q0 -12 10 -12h1005q9 0 9 12z" />
    <glyph glyph-name="partialdiff" unicode="&#x2202;" horiz-adv-x="991" 
d="M186 1358l-51 125q130 108 303 108q72 0 138.5 -27.5t126 -87.5t103.5 -147t69.5 -214t25.5 -281q0 -254 -54 -441.5t-162 -292t-259 -104.5q-84 0 -151.5 38t-109.5 102.5t-64.5 147t-22.5 173.5q0 233 114 377.5t273 144.5q54 0 103 -17.5t83 -45t56 -53t36 -50.5h2
q3 30 3 78q0 241 -94.5 401t-233.5 160q-127 0 -234 -94zM440 133h2q78 0 140.5 74t98.5 189t48 253q-22 74 -86.5 134.5t-153.5 60.5q-105 0 -179 -115.5t-74 -273.5q0 -144 55 -233t149 -89z" />
    <glyph glyph-name="uni2206" unicode="&#x2206;" horiz-adv-x="1153" 
d="M57 0v106l435 1334h180l426 -1331v-109h-1041zM215 133h717l-240 733q-12 41 -56.5 177.5t-55.5 189.5h-9q-9 -46 -49.5 -171t-52.5 -169z" />
    <glyph glyph-name="product" unicode="&#x220f;" horiz-adv-x="1261" 
d="M1210 1255h-188v-1450h-156v1450h-473v-1450h-155v1450h-189v150h1161v-150z" />
    <glyph glyph-name="summation" unicode="&#x2211;" horiz-adv-x="991" 
d="M952 -195h-907v113l471 688l-453 684v115h861v-139h-648v-6l418 -627l-456 -664v-8h714v-156z" />
    <glyph glyph-name="minus" unicode="&#x2212;" horiz-adv-x="1228" 
d="M96 449v139h1037v-139h-1037z" />
    <glyph glyph-name="uni2215" unicode="&#x2215;" horiz-adv-x="342" 
d="M-215 -68l641 1565h131l-641 -1565h-131z" />
    <glyph glyph-name="uni2219" unicode="&#x2219;" horiz-adv-x="491" 
d="M115 610q0 54 38.5 92.5t92.5 38.5t92.5 -38.5t38.5 -92.5t-38.5 -92.5t-92.5 -38.5t-92.5 38.5t-38.5 92.5z" />
    <glyph glyph-name="radical" unicode="&#x221a;" horiz-adv-x="1048" 
d="M1044 1677l-399 -1972h-135l-283 924l-135 -51l-29 100l265 102l215 -706q27 -130 32 -160h3q2 13 10 69.5t14 90.5l328 1603h114z" />
    <glyph glyph-name="infinity" unicode="&#x221e;" horiz-adv-x="1449" 
d="M1356 586v-2q0 -136 -85.5 -220.5t-203.5 -84.5q-85 0 -163.5 51t-176.5 168q-44 -52 -76.5 -84.5t-77 -67t-94 -51t-104.5 -16.5q-116 0 -199.5 85t-83.5 211q0 132 84 218t213 86q97 0 177.5 -57.5t166.5 -162.5q6 7 18 20q35 39 54 59.5t55 52t65.5 47.5t70.5 28.5
t85 12.5q122 0 198.5 -81.5t76.5 -211.5zM389 377h2q19 0 37.5 3.5t37 12t32.5 15.5t33.5 23t30 24t30.5 29t26.5 28t28 31t25.5 28q-82 104 -123 140q-81 71 -170 71q-85 0 -134.5 -60.5t-47.5 -148.5q0 -83 53.5 -139.5t138.5 -56.5zM1069 782h-2q-29 0 -59.5 -11
t-53 -24.5t-51.5 -40t-43.5 -41.5t-42 -45.5t-33.5 -37.5q100 -115 159.5 -160t129.5 -45q81 0 130.5 61t49.5 137q0 96 -50.5 151.5t-133.5 55.5z" />
    <glyph glyph-name="integral" unicode="&#x222b;" horiz-adv-x="686" 
d="M643 1698l-22 -117q-29 18 -66 18q-58 0 -90 -49q-33 -42 -46 -125.5t-13 -230.5q0 -156 12 -496t12 -510q0 -273 -78 -407q-62 -109 -196 -109q-70 0 -121 31l26 121q42 -21 78 -21q55 0 84 45q58 81 58 340q0 171 -12.5 516.5t-12.5 505.5q0 168 23 267.5t77 162.5
q73 82 187 82q57 0 100 -24z" />
    <glyph glyph-name="approxequal" unicode="&#x2248;" horiz-adv-x="1013" 
d="M868 856l64 -53q-85 -187 -238 -187q-50 0 -93 17.5t-116 60.5q-53 33 -89.5 48.5t-76.5 15.5q-57 0 -96 -36t-78 -104l-67 52q42 87 108 136.5t146 49.5q32 0 65.5 -9.5t49 -16.5t51 -28t37.5 -22q7 -4 25 -14.5t24.5 -14t21.5 -11.5t23.5 -11t21.5 -7t24.5 -5.5
t24.5 -1.5q52 0 90 34.5t78 106.5zM868 532l64 -55q-38 -83 -98 -133.5t-140 -50.5q-50 0 -92.5 17t-116.5 59q-100 65 -166 65q-57 0 -95.5 -36.5t-78.5 -104.5l-67 53q42 87 108 136.5t146 49.5q22 0 43.5 -4t37 -8.5t36 -14t30 -15t29 -17t24.5 -14.5q8 -4 29 -16.5
t29 -17t25.5 -13t28.5 -12t26 -6.5t30 -3q52 0 90 34.5t78 106.5z" />
    <glyph glyph-name="notequal" unicode="&#x2260;" horiz-adv-x="1013" 
d="M725 985l-78 -178h273v-102h-312l-119 -269h431v-102h-469l-95 -213l-80 35l80 178h-264v102h303l119 269h-422v102h459l94 211z" />
    <glyph glyph-name="lessequal" unicode="&#x2264;" horiz-adv-x="1013" 
d="M915 207l-813 428v108l811 428v-122l-706 -355v-6l708 -356v-125zM922 25h-828v106h828v-106z" />
    <glyph glyph-name="greaterequal" unicode="&#x2265;" horiz-adv-x="1013" 
d="M104 1171l814 -428v-108l-814 -428v125l707 356v4l-707 357v122zM920 25h-826v106h826v-106z" />
    <glyph glyph-name="lozenge" unicode="&#x25ca;" horiz-adv-x="1048" 
d="M950 702l-364 -786h-131l-357 786l365 787h131zM805 698l-244 533q-27 82 -33 115h-6q-16 -67 -35 -115l-243 -524l243 -539q18 -48 33 -111h6q12 55 33 107z" />
    <glyph glyph-name="fi" unicode="&#xfb01;" horiz-adv-x="1024" 
d="M711 0v1044h172v-1044h-172zM702 1475h189v-205h-189v205zM199 0v905h-166v139h166v234q0 133 64 208t196 75q69 0 135 -17v-147q-30 24 -98 24q-70 0 -97.5 -38t-27.5 -119v-220h188v-139h-188v-905h-172z" />
    <glyph glyph-name="fl" unicode="&#xfb02;" horiz-adv-x="1024" 
d="M711 0v1536h172v-1536h-172zM199 0v905h-166v139h166v234q0 133 64 208t196 75q69 0 135 -17v-147q-30 24 -98 24q-70 0 -97.5 -38t-27.5 -119v-220h188v-139h-188v-905h-172z" />
    <glyph glyph-name="a.superior" horiz-adv-x="606" 
d="M119 1286l-13 107q85 51 201 51q121 0 184.5 -54.5t63.5 -158.5v-326q0 -34 6 -94h-110l-7 88h-4q-21 -44 -69.5 -70t-118.5 -26q-95 0 -151 45.5t-56 132.5q0 107 76 162t244 55h75v41q0 60 -36 85.5t-105 25.5q-119 0 -180 -64zM440 1038v74q-18 4 -78 4
q-99 0 -146.5 -29t-47.5 -90q0 -49 29 -77.5t86 -28.5q69 0 113 44.5t44 102.5z" />
    <glyph glyph-name="o.superior" horiz-adv-x="643" 
d="M178 1122q0 -225 144 -225q143 0 143 225q0 228 -143 228q-144 0 -144 -228zM39 1122q0 151 72.5 236.5t210.5 85.5t210 -85.5t72 -236.5q0 -150 -72 -234.5t-210 -84.5t-210.5 85t-72.5 234z" />
    <glyph glyph-name="one.superior" horiz-adv-x="589" 
d="M258 578v720l-119 -122l-59 92l190 168h127v-858h-139z" />
    <glyph glyph-name="two.superior" horiz-adv-x="589" 
d="M41 578v94q179 190 265.5 318.5t86.5 209.5q0 58 -35.5 97.5t-101.5 39.5q-40 0 -89 -18t-89 -47l-15 117q113 55 220 55q116 0 182.5 -62t66.5 -155q0 -106 -97 -257t-249 -286h363v-106h-508z" />
    <glyph glyph-name="three.superior" horiz-adv-x="589" 
d="M41 600l10 117q96 -49 178 -49q76 0 132.5 47.5t56.5 120.5q0 60 -48.5 97.5t-131.5 37.5h-86v98h47q102 0 157.5 39t55.5 100t-45 99.5t-115 38.5q-85 0 -170 -50l-12 113q85 35 213 35q114 0 187 -55t73 -158q0 -84 -47.5 -135.5t-124.5 -65.5v-4q84 -9 131 -67.5
t47 -143.5q0 -107 -77.5 -176.5t-223.5 -69.5q-119 0 -207 31z" />
    </font>
</defs>
</svg>
