<?xml version="1.0" standalone="no"?>
<!DOCTYPE svg PUBLIC "-//W3C//DTD SVG 1.1//EN" "http://www.w3.org/Graphics/SVG/1.1/DTD/svg11.dtd" >
<svg xmlns="http://www.w3.org/2000/svg" xmlns:xlink="http://www.w3.org/1999/xlink" version="1.1">
<metadata>
Created by FontForge 20170731 at Wed Jan 19 23:07:55 2022
 By Aleksey,,,
(c) 1991, 2002 Adobe Systems Incorporated. All rights reserved.
</metadata>
<defs>
<font id="FrutigerLTStd-ExtraBlackCn" horiz-adv-x="1138" >
  <font-face 
    font-family="Frutiger LT Std 87 ExtraBlk Cn"
    font-weight="900"
    font-stretch="condensed"
    units-per-em="2048"
    panose-1="2 11 9 6 3 5 4 3 2 4"
    ascent="1536"
    descent="-512"
    x-height="1067"
    cap-height="1430"
    bbox="-254 -512 2048 1964"
    underline-thickness="102"
    underline-position="-307"
    unicode-range="U+0020-FB02"
  />
<missing-glyph horiz-adv-x="1024" 
d="M0 0v1434h1024v-1434h-1024zM512 809l348 522h-696zM573 717l349 -522v1044zM164 102h696l-348 523zM102 1239v-1044l349 522z" />
    <glyph glyph-name="f_i" unicode="fi" horiz-adv-x="1366" 
d="M879 0v1067h368v-1067h-368zM879 1229v307h368v-307h-368zM209 0v817h-189v250h189v152q0 342 354 342q112 0 240 -25l-8 -262q-58 20 -95 20q-63 0 -92.5 -34t-29.5 -105v-88h200v-250h-200v-817h-369z" />
    <glyph glyph-name="f_l" unicode="fl" horiz-adv-x="1366" 
d="M879 0v1536h368v-1536h-368zM209 0v817h-189v250h189v152q0 342 354 342q112 0 240 -25l-8 -262q-58 20 -95 20q-63 0 -92.5 -34t-29.5 -105v-88h200v-250h-200v-817h-369z" />
    <glyph glyph-name=".notdef" horiz-adv-x="1024" 
d="M0 0v1434h1024v-1434h-1024zM512 809l348 522h-696zM573 717l349 -522v1044zM164 102h696l-348 523zM102 1239v-1044l349 522z" />
    <glyph glyph-name=".null" horiz-adv-x="0" 
 />
    <glyph glyph-name="nonmarkingreturn" horiz-adv-x="682" 
 />
    <glyph glyph-name="space" unicode=" " horiz-adv-x="530" 
 />
    <glyph glyph-name="exclam" unicode="!" horiz-adv-x="794" 
d="M217 1430h361l-48 -949h-266zM233 0v328h328v-328h-328z" />
    <glyph glyph-name="quotedbl" unicode="&#x22;" horiz-adv-x="1097" 
d="M618 983v553h275v-553h-275zM205 983v553h274v-553h-274z" />
    <glyph glyph-name="numbersign" unicode="#" horiz-adv-x="1064" 
d="M539 0l51 379h-178l-54 -379h-217l54 379h-168v217h196l35 238h-174v217h203l53 379h217l-53 -379h180l51 379h217l-51 -379h137v-217h-168l-32 -238h137v-217h-168l-51 -379h-217zM621 596l32 238h-178l-35 -238h181z" />
    <glyph glyph-name="dollar" unicode="$" horiz-adv-x="1064" 
d="M479 -205v180q-97 0 -212 15.5t-191 42.5l24 286q196 -86 379 -86v351l-117 39q-59 19 -105.5 41.5t-89 55.5t-70 73.5t-44 96t-16.5 122.5q0 199 115 313t327 129v176h94v-176q91 0 197.5 -16.5t161.5 -44.5l-19 -273q-123 92 -340 92v-329q81 -18 144 -40.5
t123.5 -59.5t100 -85.5t63.5 -119t24 -158.5q0 -190 -120.5 -311t-334.5 -134v-180h-94zM573 563v-330q62 3 101 45.5t39 112.5q0 76 -34.5 116.5t-105.5 55.5zM479 903v309q-58 -5 -96.5 -44.5t-38.5 -112.5q0 -117 135 -152z" />
    <glyph glyph-name="percent" unicode="%" horiz-adv-x="1744" 
d="M1036 397q0 67 8.5 125t30.5 114t56.5 95.5t91 63.5t129.5 24t129 -24t91 -63.5t56.5 -95.5t30 -113.5t8.5 -125.5q0 -422 -315 -422q-316 0 -316 422zM1434 397q0 77 -6.5 126.5t-25 80.5t-50.5 31q-82 0 -82 -238q0 -115 18.5 -176t63.5 -61q32 0 50.5 31t25 80
t6.5 126zM78 1032q0 68 8.5 125.5t30 113.5t56.5 95.5t91 63.5t129 24t129.5 -24t91 -63.5t56.5 -95.5t30.5 -114t8.5 -125q0 -422 -316 -422q-315 0 -315 422zM475 1032q0 77 -6.5 126.5t-25 80.5t-50.5 31q-82 0 -82 -238q0 -115 18.5 -176t63.5 -61q32 0 50.5 31t25 80
t6.5 126zM451 -70l647 1569h200l-647 -1569h-200z" />
    <glyph glyph-name="ampersand" unicode="&#x26;" horiz-adv-x="1478" 
d="M1028 0l-80 92q-52 -50 -144 -83.5t-210 -33.5q-227 0 -367.5 118.5t-140.5 324.5q0 218 176 338l72 49l-25 26q-131 157 -131 283q0 51 13.5 97t47 91.5t84 78.5t132 53t184.5 20q215 0 322.5 -90t107.5 -246q0 -91 -50 -168t-159 -168l-39 -32l168 -201
q20 27 37.5 83.5t17.5 106.5v47h328v-32q0 -130 -60.5 -260t-131.5 -195l233 -299h-385zM618 922l25 20q119 97 119 193q0 56 -33.5 87t-93.5 31q-65 0 -103 -34.5t-38 -98.5q0 -67 69 -141zM782 291l-247 303l-17 -14q-24 -19 -48 -61.5t-24 -86.5q0 -98 45.5 -152.5
t133.5 -54.5q87 0 139 49z" />
    <glyph glyph-name="quotesingle" unicode="'" horiz-adv-x="532" 
d="M129 983v553h274v-553h-274z" />
    <glyph glyph-name="parenleft" unicode="(" horiz-adv-x="681" 
d="M369 1548h274q-3 -7 -27.5 -55.5t-34.5 -70.5t-34.5 -77t-38 -93.5t-34 -99.5t-32 -116t-24 -122t-18 -138t-5.5 -145t5.5 -145t18 -138t24 -122t32.5 -116.5t33.5 -99.5t38 -94t35 -77t34 -70.5t27.5 -55.5h-274q-34 51 -65.5 105t-74.5 148t-74 188.5t-53 222
t-22 254.5t22 254t53 222t74.5 189t74.5 147.5t65 104.5z" />
    <glyph glyph-name="parenright" unicode=")" horiz-adv-x="681" 
d="M313 -287h-274q3 6 27.5 55.5t34 70.5t35 77t38 94t33.5 99.5t32.5 116.5t24 122t18 138t5.5 145t-5.5 145t-18 138t-24 122t-32 116t-34 99.5t-38 93.5t-34.5 77t-34.5 70.5t-27.5 55.5h274q34 -51 65 -104.5t74.5 -147.5t74.5 -189t53 -222t22 -254t-22 -254.5
t-53 -222t-74 -188.5t-74.5 -148t-65.5 -105z" />
    <glyph glyph-name="asterisk" unicode="*" horiz-adv-x="1097" 
d="M145 1147l82 246l246 -133l-51 276h258l-47 -276l237 133l82 -246l-272 -39l199 -186l-211 -154l-117 250l-129 -250l-207 154l201 186z" />
    <glyph glyph-name="plus" unicode="+" horiz-adv-x="1228" 
d="M96 389v258h389v389h258v-389h390v-258h-390v-389h-258v389h-389z" />
    <glyph glyph-name="comma" unicode="," horiz-adv-x="532" 
d="M49 -225l111 553h327l-172 -553h-266z" />
    <glyph glyph-name="hyphen" unicode="-" horiz-adv-x="684" 
d="M78 453v282h528v-282h-528z" />
    <glyph glyph-name="period" unicode="." horiz-adv-x="532" 
d="M102 0v328h328v-328h-328z" />
    <glyph glyph-name="slash" unicode="/" horiz-adv-x="606" 
d="M20 -25l332 1479h234l-332 -1479h-234z" />
    <glyph glyph-name="zero" unicode="0" horiz-adv-x="1064" 
d="M397 715q0 -146 9 -241t27.5 -145t41.5 -68.5t57 -18.5q46 0 73.5 34t45 140.5t17.5 298.5q0 145 -9 240.5t-28 145.5t-42 68.5t-57 18.5t-57 -18.5t-41.5 -68.5t-27.5 -145t-9 -241zM45 715q0 739 487 739q488 0 488 -739q0 -134 -14.5 -242t-49.5 -202.5t-90 -158.5
t-139.5 -100.5t-194.5 -36.5t-194.5 36.5t-139.5 100t-89.5 158.5t-49 203t-14.5 242z" />
    <glyph glyph-name="one" unicode="1" horiz-adv-x="1064" 
d="M422 0v1012l-189 -181l-167 261l434 338h291v-1430h-369z" />
    <glyph glyph-name="two" unicode="2" horiz-adv-x="1064" 
d="M78 0v283l72 63q65 58 135.5 132t144 165t121 184t47.5 162q0 91 -48 132.5t-142 41.5q-142 0 -285 -112l-23 317q179 86 432 86q130 0 228 -42t156.5 -134t58.5 -225q0 -59 -21.5 -127.5t-52 -128.5t-78 -128.5t-85 -116.5t-88 -104t-73.5 -79.5t-53 -53.5l-37 -36v-5
h500v-274h-909z" />
    <glyph glyph-name="three" unicode="3" horiz-adv-x="1064" 
d="M272 602v258h84q252 0 252 154q0 82 -58.5 119.5t-156.5 37.5q-135 0 -272 -65l-19 276q216 72 363 72q87 0 158.5 -9.5t139 -34.5t113.5 -65.5t73.5 -106t27.5 -151.5q0 -71 -27 -133t-70 -102.5t-93.5 -65t-100.5 -28.5v-4q38 -5 72.5 -14.5t79 -33.5t76.5 -58
t54.5 -93.5t22.5 -134.5q0 -213 -148.5 -329t-398.5 -116q-98 0 -180 12.5t-114 23t-76 28.5l14 291q3 -1 22 -9.5t28 -12t30.5 -11.5t36 -12t38.5 -10t45 -9t47.5 -5.5t53.5 -2.5q99 0 162 46t63 122q0 92 -58 134t-171 42h-113z" />
    <glyph glyph-name="four" unicode="4" horiz-adv-x="1064" 
d="M543 0v262h-518v330l471 838h391v-910h153v-258h-153v-262h-344zM543 520v549h-4l-281 -549h285z" />
    <glyph glyph-name="five" unicode="5" horiz-adv-x="1064" 
d="M74 43l14 281q145 -66 281 -66q112 0 174.5 58.5t62.5 154.5q0 116 -80.5 168.5t-208.5 52.5q-31 0 -58.5 -2.5t-53.5 -7.5t-38 -8t-37 -11t-26 -8v775h824v-267h-508v-237q77 16 135 16q195 0 315.5 -125.5t120.5 -324.5q0 -129 -44.5 -229.5t-122.5 -162.5t-178 -93.5
t-216 -31.5q-41 0 -78 2t-69 7.5t-54.5 9.5t-49.5 12.5t-38.5 12t-37 13t-29.5 11.5z" />
    <glyph glyph-name="six" unicode="6" horiz-adv-x="1064" 
d="M944 1397l-20 -277q-117 68 -228 68q-63 0 -113 -18.5t-81 -50.5t-52.5 -69t-32 -81.5t-14.5 -80t-4 -71.5h4q70 107 234 107q179 0 279 -128.5t100 -361.5q0 -204 -121 -331.5t-324 -127.5q-88 0 -161 21t-126 57t-94.5 88.5t-67.5 111.5t-43 130.5t-23.5 141.5
t-6.5 147q0 73 5.5 140.5t22 148t43 148.5t72.5 133.5t106 111t147.5 73t193.5 27.5q95 0 177.5 -17t127.5 -40zM418 432q0 -96 30 -151.5t89 -55.5q118 0 118 217q0 102 -26 154.5t-90 52.5q-66 0 -93.5 -56.5t-27.5 -160.5z" />
    <glyph glyph-name="seven" unicode="7" horiz-adv-x="1064" 
d="M166 0l463 1147h-543v283h893v-320l-416 -1110h-397z" />
    <glyph glyph-name="eight" unicode="8" horiz-adv-x="1064" 
d="M37 389q0 110 63 205.5t193 138.5q-219 91 -219 342q0 169 113.5 274t344.5 105q207 0 326 -104t119 -265q0 -71 -19.5 -127t-57 -95.5t-73.5 -64t-88 -50.5q38 -11 69 -23.5t74.5 -39.5t73 -60.5t51 -88t21.5 -120.5q0 -114 -38 -200.5t-106.5 -138t-158 -77
t-199.5 -25.5q-226 0 -357.5 116t-131.5 298zM401 1049q0 -71 40 -123t98 -74q43 26 72.5 74t29.5 108q0 76 -28.5 123t-90.5 47q-58 0 -89.5 -41.5t-31.5 -113.5zM389 397q0 -83 38 -127.5t101 -44.5q69 0 104.5 51t35.5 127q0 81 -49.5 136.5t-110.5 78.5
q-119 -64 -119 -221z" />
    <glyph glyph-name="nine" unicode="9" horiz-adv-x="1064" 
d="M121 33l20 276q115 -67 228 -67q63 0 113 18t81 50.5t52.5 69t32 81.5t14.5 80t4 71h-4q-69 -106 -234 -106q-179 0 -279 128t-100 361q0 204 121 331.5t324 127.5q88 0 161 -21t126 -57t94.5 -88t67.5 -111.5t43 -130.5t23.5 -141t6.5 -147q0 -73 -5.5 -140.5
t-22 -148.5t-43 -149t-72.5 -133t-106 -110.5t-147.5 -73.5t-193.5 -28q-95 0 -177.5 17.5t-127.5 40.5zM647 997q0 96 -30 151.5t-89 55.5q-118 0 -118 -217q0 -102 26 -154.5t90 -52.5q66 0 93.5 56.5t27.5 160.5z" />
    <glyph glyph-name="colon" unicode=":" horiz-adv-x="532" 
d="M102 739v328h328v-328h-328zM102 0v328h328v-328h-328z" />
    <glyph glyph-name="semicolon" unicode=";" horiz-adv-x="532" 
d="M49 -225l111 553h327l-172 -553h-266zM137 739v328h328v-328h-328z" />
    <glyph glyph-name="less" unicode="&#x3c;" horiz-adv-x="1228" 
d="M1133 1053v-250l-701 -285l701 -285v-249l-1037 426v217z" />
    <glyph glyph-name="equal" unicode="=" horiz-adv-x="1228" 
d="M96 625v258h1037v-258h-1037zM96 154v258h1037v-258h-1037z" />
    <glyph glyph-name="greater" unicode="&#x3e;" horiz-adv-x="1228" 
d="M96 -16v249l701 285l-701 285v250l1037 -426v-217z" />
    <glyph glyph-name="question" unicode="?" horiz-adv-x="948" 
d="M616 477h-315v39q0 59 21.5 114t51.5 98t60.5 84.5t52 91.5t21.5 102q0 80 -48 122.5t-128 42.5q-55 0 -110.5 -12.5t-83 -23.5t-70.5 -31l-13 291q48 23 159 41t212 18q467 0 467 -371q0 -77 -28.5 -150t-69.5 -128t-81.5 -104.5t-69 -99.5t-28.5 -93v-31zM295 0v328
h328v-328h-328z" />
    <glyph glyph-name="at" unicode="@" horiz-adv-x="1638" 
d="M631 678q0 -87 45 -144t127 -57q87 0 138.5 64.5t51.5 163.5q0 84 -47 138t-123 54q-92 0 -142 -65t-50 -154zM1255 281h209q-220 -306 -620 -306q-166 0 -309 55.5t-243.5 153t-158 235t-57.5 296.5q0 209 99.5 377.5t278 265t402.5 96.5q115 0 219 -23.5t193.5 -74
t155 -123.5t102.5 -178t37 -232q0 -98 -29 -182t-76.5 -140.5t-104.5 -100t-116.5 -67.5t-108 -36t-84.5 -12q-57 0 -81.5 24t-26.5 76h-4q-89 -100 -223 -100q-116 0 -201.5 109t-85.5 265q0 198 106.5 314.5t270.5 116.5q162 0 245 -115l19 96h192l-69 -428
q-4 -19 -9.5 -46.5l-8.5 -42.5t-3 -24q0 -38 35 -38q30 0 58.5 18t54 54.5t41 101.5t16.5 149q2 223 -128.5 335t-401.5 112q-119 0 -222.5 -42t-176 -115t-114.5 -175t-42 -219q0 -256 152 -399.5t403 -143.5q252 0 415 113z" />
    <glyph glyph-name="A" unicode="A" horiz-adv-x="1366" 
d="M963 0l-76 303h-420l-92 -303h-369l475 1430h424l455 -1430h-397zM815 578l-125 561h-4l-154 -561h283z" />
    <glyph glyph-name="B" unicode="B" horiz-adv-x="1214" 
d="M498 266h102q84 0 129 41.5t45 122.5q0 80 -41.5 125t-116.5 45h-118v-334zM129 0v1430h541q224 0 337 -88t113 -250q0 -83 -21 -145.5t-60 -102.5t-84 -63.5t-103 -37.5v-4q137 -24 214 -110t77 -228q0 -104 -34 -182t-97 -125t-146.5 -70.5t-187.5 -23.5h-549zM498 858
h75q79 0 129 37t50 121q0 77 -42.5 116t-113.5 39h-98v-313z" />
    <glyph glyph-name="C" unicode="C" horiz-adv-x="1214" 
d="M1135 362l16 -331q-183 -56 -352 -56q-158 0 -287.5 47t-225 139t-148 236t-52.5 328q0 159 45.5 292t133.5 230.5t224 152t308 54.5q184 0 346 -65l-21 -316q-137 82 -278 82q-182 0 -271.5 -112.5t-89.5 -325.5q0 -190 100 -312t277 -122q90 0 161.5 25.5t113.5 53.5z
" />
    <glyph glyph-name="D" unicode="D" horiz-adv-x="1402" 
d="M129 0v1430h551q310 0 482.5 -191t172.5 -516q0 -365 -183.5 -544t-530.5 -179h-492zM514 1147v-873h84q164 0 248 112.5t84 322.5q0 107 -20.5 186t-54 127t-85 76.5t-104.5 38.5t-121 10h-31z" />
    <glyph glyph-name="E" unicode="E" horiz-adv-x="1099" 
d="M129 0v1430h877v-283h-500v-275h475v-282h-475v-307h526v-283h-903z" />
    <glyph glyph-name="F" unicode="F" horiz-adv-x="1024" 
d="M129 0v1430h844v-283h-467v-291h446v-283h-446v-573h-377z" />
    <glyph glyph-name="G" unicode="G" horiz-adv-x="1402" 
d="M735 561v266h555v-772q-66 -33 -184.5 -56.5t-247.5 -23.5q-166 0 -306.5 48t-244.5 138.5t-162.5 230.5t-58.5 315q0 164 49 299t144.5 236t248 156.5t349.5 55.5q202 0 370 -57l-20 -305q-124 79 -314 79q-216 0 -323 -124.5t-107 -341.5q0 -203 91 -321t231 -118
q82 0 125 25v270h-195z" />
    <glyph glyph-name="H" unicode="H" horiz-adv-x="1327" 
d="M813 0v582h-299v-582h-385v1430h385v-549h299v549h385v-1430h-385z" />
    <glyph glyph-name="I" unicode="I" horiz-adv-x="643" 
d="M129 0v1430h385v-1430h-385z" />
    <glyph glyph-name="J" unicode="J" horiz-adv-x="833" 
d="M27 18l14 304q68 -31 119 -31q159 0 159 219v920h386v-965q0 -490 -435 -490q-119 0 -243 43z" />
    <glyph glyph-name="K" unicode="K" horiz-adv-x="1290" 
d="M838 0l-320 645h-4v-645h-385v1430h385v-580h4l311 580h426l-409 -670l440 -760h-448z" />
    <glyph glyph-name="L" unicode="L" horiz-adv-x="1024" 
d="M129 0v1430h385v-1139h471v-291h-856z" />
    <glyph glyph-name="M" unicode="M" horiz-adv-x="1781" 
d="M758 0l-289 1085h-4v-1085h-336v1430h567l191 -898h4l209 898h553v-1430h-344v1085h-4l-308 -1085h-239z" />
    <glyph glyph-name="N" unicode="N" horiz-adv-x="1402" 
d="M831 0l-366 991h-8v-991h-336v1430h446l375 -986h4v986h336v-1430h-451z" />
    <glyph glyph-name="O" unicode="O" horiz-adv-x="1441" 
d="M86 715q0 154 36.5 280t97.5 210t143.5 141t172 82.5t185.5 25.5t185.5 -25.5t172 -82.5t143.5 -141t97.5 -210t36.5 -280t-36.5 -280t-97.5 -210t-143.5 -141.5t-172 -83t-185.5 -25.5t-185.5 25.5t-172 83t-143.5 141.5t-97.5 210t-36.5 280zM477 715
q0 -218 60.5 -341.5t179.5 -123.5h2q119 0 179 123.5t60 341.5q0 216 -60.5 340.5t-178.5 124.5q-120 0 -181 -124.5t-61 -340.5z" />
    <glyph glyph-name="P" unicode="P" horiz-adv-x="1175" 
d="M514 500v-500h-385v1430h475q524 0 524 -474q0 -214 -124 -335t-330 -121h-160zM498 774h67q78 0 128 51t50 136q0 98 -49 146t-139 48h-57v-381z" />
    <glyph glyph-name="Q" unicode="Q" horiz-adv-x="1441" 
d="M915 -285l-182 260h-12q-96 0 -185.5 25.5t-172 83t-143.5 141.5t-97.5 210t-36.5 280t36.5 280t97.5 210t143.5 141t172 82.5t185.5 25.5t185.5 -25.5t172 -82.5t143.5 -141t97.5 -210t36.5 -280q0 -244 -86 -408.5t-230 -247.5l297 -344h-422zM477 715
q0 -218 60.5 -341.5t179.5 -123.5h2q119 0 179 123.5t60 341.5q0 216 -60.5 340.5t-178.5 124.5q-120 0 -181 -124.5t-61 -340.5z" />
    <glyph glyph-name="R" unicode="R" horiz-adv-x="1251" 
d="M498 834h112q64 0 111 43t47 110q0 77 -41 122.5t-123 45.5h-106v-321zM803 0l-107 406q-25 93 -65 123t-96 30h-21v-559h-385v1430h571q221 0 337 -95.5t116 -290.5q0 -75 -24.5 -134.5t-66.5 -97t-86.5 -60t-96.5 -35.5v-6q34 -11 57 -25t47.5 -42.5t45.5 -76.5
t42 -121l129 -446h-397z" />
    <glyph glyph-name="S" unicode="S" 
d="M111 31l22 313q50 -29 141.5 -57.5t182.5 -28.5q196 0 196 154q0 34 -10 58t-37 43.5t-51.5 30.5t-75.5 31l-84 33q-171 67 -239 165.5t-68 256.5q0 198 144 311t376 113q219 0 361 -57l-17 -281q-57 29 -137.5 50.5t-157.5 21.5q-87 0 -135.5 -35t-48.5 -100
q0 -55 33.5 -88t130.5 -76l172 -78q54 -24 93.5 -52t75 -70t54.5 -102.5t19 -137.5q0 -229 -151 -351.5t-408 -122.5q-25 0 -51 1t-47.5 3t-46.5 5t-42 5.5t-41.5 7t-36.5 7t-35 7.5t-30 7t-28 7t-23 6z" />
    <glyph glyph-name="T" unicode="T" horiz-adv-x="1060" 
d="M338 0v1139h-307v291h999v-291h-307v-1139h-385z" />
    <glyph glyph-name="U" unicode="U" horiz-adv-x="1327" 
d="M496 1430v-906q-3 -127 35 -196.5t133 -69.5q49 0 82 18.5t51.5 55.5t26 83t7.5 109v906h377v-893q0 -152 -42 -263.5t-118 -175t-171 -93.5t-213 -30q-93 0 -172.5 18t-149 60t-118.5 105.5t-77 160t-28 218.5v893h377z" />
    <glyph glyph-name="V" unicode="V" horiz-adv-x="1290" 
d="M436 0l-424 1430h408l229 -1024h4l234 1024h391l-424 -1430h-418z" />
    <glyph glyph-name="W" unicode="W" horiz-adv-x="1781" 
d="M1053 0l-152 1102h-4l-154 -1102h-448l-283 1430h361l151 -1004h4l150 1004h446l156 -1004h4l158 1004h327l-262 -1430h-454z" />
    <glyph glyph-name="X" unicode="X" horiz-adv-x="1290" 
d="M844 0l-207 489l-215 -489h-410l406 758l-361 672h435l170 -424l176 424h409l-368 -672l399 -758h-434z" />
    <glyph glyph-name="Y" unicode="Y" horiz-adv-x="1249" 
d="M432 0v520l-432 910h438l197 -549h4l186 549h424l-432 -910v-520h-385z" />
    <glyph glyph-name="Z" unicode="Z" horiz-adv-x="1099" 
d="M59 0v319l549 828h-536v283h962v-306l-567 -841h573v-283h-981z" />
    <glyph glyph-name="bracketleft" unicode="[" horiz-adv-x="681" 
d="M154 1548h475v-233h-193v-1368h193v-234h-475v1835z" />
    <glyph glyph-name="backslash" unicode="\" horiz-adv-x="606" 
d="M352 -25l-332 1479h234l332 -1479h-234z" />
    <glyph glyph-name="bracketright" unicode="]" horiz-adv-x="681" 
d="M528 -287h-475v234h193v1368h-193v233h475v-1835z" />
    <glyph glyph-name="asciicircum" unicode="^" horiz-adv-x="1228" 
d="M143 682l355 748h233l354 -748h-249l-222 465l-221 -465h-250z" />
    <glyph glyph-name="underscore" unicode="_" horiz-adv-x="1024" 
d="M0 -256v102h1024v-102h-1024z" />
    <glyph glyph-name="grave" unicode="`" horiz-adv-x="495" 
d="M184 1217l-204 299h315l98 -299h-209z" />
    <glyph glyph-name="a" unicode="a" 
d="M1036 696v-460q0 -100 13 -236h-328q-1 16 -4.5 46t-5.5 54.5t-2 46.5q-82 -92 -154 -132t-166 -40q-142 0 -232.5 94t-90.5 246q0 365 548 365h95v33q0 58 -50.5 101.5t-150.5 43.5q-148 0 -307 -100l-13 264q187 70 400 70q109 0 190 -20.5t130 -55t78 -87t39.5 -107.5
t10.5 -126zM709 481v35h-43q-129 0 -201 -43t-72 -133q0 -131 127 -131q189 0 189 272z" />
    <glyph glyph-name="b" unicode="b" horiz-adv-x="1212" 
d="M102 188v1348h369v-434q0 -101 -8 -191h4q59 96 125.5 138.5t169.5 42.5q77 0 141.5 -31.5t108 -84t73.5 -122t44 -144t14 -151.5q0 -124 -23.5 -227t-70.5 -181.5t-125 -122.5t-181 -44q-88 0 -157 43t-125 145h-4q0 -15 -11 -172h-352q8 126 8 188zM758 543
q0 299 -144 299q-68 0 -105.5 -81.5t-37.5 -217.5t37.5 -218.5t105.5 -82.5q144 0 144 301z" />
    <glyph glyph-name="c" unicode="c" horiz-adv-x="948" 
d="M893 1040l-19 -268q-2 1 -15 6.5t-18.5 7.5t-19 7t-22.5 7.5t-23 6.5t-26 5.5t-26.5 3t-29.5 1.5q-108 0 -174.5 -70.5t-66.5 -214.5q0 -282 235 -282q59 0 118.5 16.5t86.5 30.5l10 -266q-41 -20 -136.5 -38t-160.5 -18q-113 0 -204 30t-151 82t-100 123.5t-57.5 151.5
t-17.5 170q0 114 29 211t89.5 177t165.5 126t246 46q147 0 287 -52z" />
    <glyph glyph-name="d" unicode="d" horiz-adv-x="1212" 
d="M1110 1536v-1348q0 -62 8 -188h-352q-10 142 -10 172h-4q-56 -102 -125 -145t-158 -43q-103 0 -180.5 44t-124.5 122.5t-70.5 181.5t-23.5 227q0 77 14 151.5t44 144t73.5 122t108 84t141.5 31.5q102 0 168.5 -42.5t125.5 -138.5h5q-9 101 -9 191v434h369zM455 543
q0 -144 33 -222.5t110 -78.5q68 0 105.5 82.5t37.5 218.5t-37.5 217.5t-105.5 81.5q-53 0 -85.5 -39t-45 -102.5t-12.5 -157.5z" />
    <glyph glyph-name="e" unicode="e" 
d="M1063 432h-643q13 -223 266 -223q117 0 311 84l9 -256q-180 -59 -373 -62q-125 -1 -223.5 32t-160 86.5t-101.5 128.5t-56 152.5t-16 164.5q0 111 32.5 210t93.5 176t156.5 122t212.5 45q121 0 217 -45.5t155 -123.5t89.5 -176.5t30.5 -209.5v-105zM412 625h315v30
q0 110 -34 160.5t-115 50.5q-78 0 -122 -65t-44 -176z" />
    <glyph glyph-name="f" unicode="f" horiz-adv-x="796" 
d="M209 0v817h-189v250h189v152q0 342 354 342q112 0 240 -25l-8 -262q-58 20 -95 20q-63 0 -92.5 -34t-29.5 -105v-88h200v-250h-200v-817h-369z" />
    <glyph glyph-name="g" unicode="g" horiz-adv-x="1212" 
d="M129 -383l12 293q49 -28 83 -44.5t104 -35t143 -18.5q155 0 223 80.5t68 238.5v80h-4q-36 -101 -111.5 -156t-173.5 -55q-107 0 -185.5 41.5t-125.5 118.5t-69.5 178.5t-22.5 230.5q0 139 45.5 256.5t137.5 192t214 74.5q199 0 291 -199h4q0 81 14 174h346
q-12 -126 -12 -250v-684q0 -291 -137.5 -439.5t-442.5 -148.5q-109 0 -230 24.5t-171 47.5zM741 541q0 284 -151 284q-51 0 -82 -36.5t-42 -93t-11 -140.5q0 -74 6 -125.5t21 -94.5t44 -64t72 -21q36 0 62 14.5t41.5 38t24.5 62t12 79.5t3 97z" />
    <glyph glyph-name="h" unicode="h" horiz-adv-x="1175" 
d="M102 0v1536h369v-473q0 -53 -8 -131h6q90 160 281 160q144 0 233.5 -87t89.5 -257v-748h-368v641q0 152 -101 152q-65 0 -99 -59t-34 -148v-586h-369z" />
    <glyph glyph-name="i" unicode="i" horiz-adv-x="606" 
d="M119 0v1067h368v-1067h-368zM119 1229v307h368v-307h-368z" />
    <glyph glyph-name="j" unicode="j" horiz-adv-x="606" 
d="M119 -29v1096h368v-1092q0 -105 -16 -179t-55 -133t-112 -88.5t-181 -29.5q-107 0 -182 27l12 242q18 -11 49 -11q117 0 117 168zM119 1229v307h368v-307h-368z" />
    <glyph glyph-name="k" unicode="k" 
d="M719 0l-227 500h-5v-500h-368v1536h368v-899h5l241 430h369l-299 -489l323 -578h-407z" />
    <glyph glyph-name="l" unicode="l" horiz-adv-x="606" 
d="M119 0v1536h368v-1536h-368z" />
    <glyph glyph-name="m" unicode="m" horiz-adv-x="1777" 
d="M102 0v838q0 159 -12 229h346q8 -57 8 -178h5q8 22 19 43.5t35.5 52t55.5 53t81.5 38.5t109.5 16q209 0 292 -179q113 179 320 179q138 0 225.5 -81.5t87.5 -244.5v-766h-368v641q0 77 -25 114.5t-80 37.5q-38 0 -64.5 -16t-40 -43t-19 -56t-5.5 -62v-616h-368v641
q0 152 -101 152q-65 0 -99 -59t-34 -148v-586h-369z" />
    <glyph glyph-name="n" unicode="n" horiz-adv-x="1175" 
d="M102 0v850q0 119 -12 217h346q8 -57 8 -178h5q8 22 19 43.5t35.5 52t55.5 53t81.5 38.5t109.5 16q144 0 233.5 -87t89.5 -257v-748h-368v641q0 152 -101 152q-65 0 -99 -59t-34 -148v-586h-369z" />
    <glyph glyph-name="o" unicode="o" horiz-adv-x="1212" 
d="M461 532q0 -66 5.5 -115t20 -95.5t44.5 -71.5t75 -25t75.5 25t45 71.5t20 95.5t5.5 115t-5.5 115.5t-20 96.5t-45 72.5t-75.5 25.5t-75 -25.5t-44.5 -72.5t-20 -96.5t-5.5 -115.5zM76 532q0 114 29 211t89.5 177t165.5 126t246 46q113 0 204 -30.5t151.5 -82.5
t100.5 -124.5t57.5 -152.5t17.5 -170t-17.5 -170t-57.5 -151.5t-100.5 -123.5t-151.5 -82t-204 -30t-204 30t-151 82t-100 123.5t-57.5 151.5t-17.5 170z" />
    <glyph glyph-name="p" unicode="p" horiz-adv-x="1212" 
d="M102 -442v1333q0 118 -12 176h356q11 -135 11 -164h4q56 103 125 146t157 43q103 0 181 -44t125 -123t70.5 -182t23.5 -227q0 -77 -14 -151.5t-44 -144t-73.5 -121.5t-108 -83.5t-141.5 -31.5q-103 0 -169.5 42.5t-125.5 137.5h-4q8 -90 8 -191v-415h-369zM471 532
q0 -136 37.5 -217.5t105.5 -81.5q144 0 144 299q0 302 -131 302q-72 0 -114 -83t-42 -219z" />
    <glyph glyph-name="q" unicode="q" horiz-adv-x="1212" 
d="M741 -442v415q0 90 9 191h-5q-59 -95 -125 -137.5t-169 -42.5q-77 0 -141.5 31.5t-108 83.5t-73.5 121.5t-44 144t-14 151.5q0 124 23.5 227t70.5 182t124.5 123t180.5 44q88 0 157.5 -43.5t125.5 -145.5h4q0 41 10 164h356q-12 -58 -12 -236v-1273h-369zM455 532
q0 -94 12.5 -157.5t45 -102.5t85.5 -39q68 0 105.5 81.5t37.5 217.5q0 138 -42 220t-113 82q-72 0 -101.5 -77.5t-29.5 -224.5z" />
    <glyph glyph-name="r" unicode="r" horiz-adv-x="833" 
d="M102 0v758q0 211 -12 309h346q8 -57 8 -178h5q75 203 272 203q21 0 61 -7v-321q-32 12 -110 12q-89 0 -145 -69.5t-56 -176.5v-530h-369z" />
    <glyph glyph-name="s" unicode="s" horiz-adv-x="909" 
d="M70 25l8 284q42 -21 71 -34t88.5 -27.5t118.5 -14.5q152 0 152 76q0 27 -25 46t-94 44l-113 41q-121 43 -170 117.5t-49 183.5q0 73 24.5 134.5t75.5 111t139.5 77.5t205.5 28q153 0 297 -50l-13 -266q-145 66 -262 66q-59 0 -95 -19t-36 -59q0 -27 28 -48t95 -46
l123 -45q110 -40 161.5 -104t51.5 -195q0 -170 -113 -260.5t-344 -90.5q-83 0 -180.5 16t-144.5 34z" />
    <glyph glyph-name="t" unicode="t" horiz-adv-x="833" 
d="M27 817v250h182v225l369 115v-340h206v-250h-206v-455q0 -64 33.5 -96.5t86.5 -32.5q59 0 86 17l11 -250q-117 -25 -244 -25q-155 0 -248.5 83.5t-93.5 230.5v528h-182z" />
    <glyph glyph-name="u" unicode="u" horiz-adv-x="1175" 
d="M1073 1067v-891q0 -118 12 -176h-346q-8 57 -8 178h-4q-8 -22 -19 -43.5t-35.5 -52t-55.5 -53t-81.5 -38.5t-109.5 -16q-144 0 -234 87t-90 257v748h369v-641q0 -78 24.5 -115t79.5 -37q50 0 80.5 29t40 65.5t9.5 82.5v616h368z" />
    <glyph glyph-name="v" unicode="v" 
d="M348 0l-336 1067h385l185 -731h4l180 731h360l-342 -1067h-436z" />
    <glyph glyph-name="w" unicode="w" horiz-adv-x="1705" 
d="M1012 0l-150 760h-4l-153 -760h-406l-287 1067h377l133 -739h4l136 739h421l125 -739h4l131 739h351l-285 -1067h-397z" />
    <glyph glyph-name="x" unicode="x" horiz-adv-x="1099" 
d="M694 0l-151 334l-160 -334h-385l334 569l-303 498h409l131 -289l138 289h376l-303 -498l322 -569h-408z" />
    <glyph glyph-name="y" unicode="y" 
d="M12 1067h385l191 -680h4l176 680h358l-399 -1190q-21 -61 -41 -104.5t-53 -89t-73 -74t-100 -46.5t-134 -18q-91 0 -205 35l10 266q63 -18 98 -18q83 0 128.5 47.5t45.5 124.5z" />
    <glyph glyph-name="z" unicode="z" horiz-adv-x="909" 
d="M57 0v309l398 484h-385v274h770v-297l-391 -496h403v-274h-795z" />
    <glyph glyph-name="braceleft" unicode="{" horiz-adv-x="796" 
d="M735 1548v-184h-96q-39 0 -65 -12t-36.5 -34t-14 -40.5t-3.5 -44.5v-375q0 -53 -16.5 -93.5t-41 -63.5t-58.5 -38.5t-62 -21.5t-59 -8v-4q25 -2 41.5 -4t43.5 -8t45.5 -15.5t40.5 -28t35 -42.5t22 -60.5t9 -81.5v-360q0 -26 3.5 -44.5t14 -40.5t36.5 -34t65 -12h96v-185
h-205q-121 0 -206.5 72t-85.5 209v395q0 47 -20 79.5t-52 46.5t-56.5 19t-48.5 5v184q24 0 48.5 4.5t56.5 16.5t52 41.5t20 72.5v410q0 137 85.5 208.5t206.5 71.5h205z" />
    <glyph glyph-name="bar" unicode="|" horiz-adv-x="454" 
d="M98 -512v2048h258v-2048h-258z" />
    <glyph glyph-name="braceright" unicode="}" horiz-adv-x="796" 
d="M61 -287v185h97q39 0 64.5 12t36.5 34t14 40.5t3 44.5v374q0 53 16.5 93.5t41 64t59 39t62.5 21.5t59 8v4q-36 2 -59.5 5.5t-61 18t-60 38t-40 69t-17.5 108.5v361q0 26 -3 44.5t-14 40.5t-36.5 34t-64.5 12h-97v184h205q121 0 207 -71.5t86 -208.5v-396q0 -47 20 -79.5
t51.5 -46t56 -18.5t48.5 -5v-184q-24 0 -48.5 -4.5t-56 -17t-51.5 -42t-20 -72.5v-409q0 -137 -86 -209t-207 -72h-205z" />
    <glyph glyph-name="asciitilde" unicode="~" horiz-adv-x="1228" 
d="M1014 723l73 -223q-92 -176 -256 -176q-56 0 -120 20.5t-112 45t-104.5 45t-99.5 20.5q-29 0 -55 -11t-49 -35t-38.5 -43.5t-37.5 -52.5l-74 224q92 176 256 176q56 0 120 -20.5t112.5 -45t105 -45t99.5 -20.5q29 0 55 11t49 34.5t38.5 43t37.5 52.5z" />
    <glyph glyph-name="uni00A0" unicode="&#xa0;" horiz-adv-x="530" 
 />
    <glyph glyph-name="exclamdown" unicode="&#xa1;" horiz-adv-x="794" 
d="M217 -362l47 948h266l48 -948h-361zM233 739v328h328v-328h-328z" />
    <glyph glyph-name="cent" unicode="&#xa2;" horiz-adv-x="1064" 
d="M600 283l76 528q-82 -18 -131 -88t-49 -191q0 -186 104 -249zM520 -266l37 246q-93 11 -167.5 47t-124.5 87.5t-83.5 119.5t-48 142t-14.5 156q0 114 29 211t89.5 177t165.5 126t246 46q45 0 68 -5l35 236h118l-36 -250q21 -4 39.5 -10t38.5 -14t24 -9l-18 -268
q-78 32 -121 39l-82 -559q2 0 7.5 -1t8.5 -1q59 0 118.5 16.5t86.5 30.5l10 -266q-38 -19 -122.5 -36t-149.5 -20l-35 -241h-119z" />
    <glyph glyph-name="sterling" unicode="&#xa3;" horiz-adv-x="1064" 
d="M66 0v266h135v381h-135v201h135v76q0 55 4 102t18 103t37 100.5t63.5 88t94.5 72t134 46.5t179 18q30 0 66.5 -2.5t60 -5.5t68.5 -8.5t61 -7.5l-16 -269q-12 2 -51 10t-73.5 12.5t-70.5 4.5q-66 0 -110.5 -21t-66.5 -61t-30 -84t-8 -104v-70h297v-201h-297v-381h438v-266
h-933z" />
    <glyph glyph-name="currency" unicode="&#xa4;" horiz-adv-x="1064" 
d="M47 346l109 107q-44 44 -65 116.5t-21 145.5q0 74 21 146t65 118l-109 104l117 117l106 -100q47 37 121 57.5t141 20.5t141.5 -20.5t121.5 -57.5l106 100l117 -117l-109 -104q44 -46 65 -118t21 -146q0 -73 -21 -145.5t-65 -116.5l109 -107l-117 -117l-106 101
q-47 -36 -122 -57t-141 -21t-140.5 21t-121.5 57l-106 -101zM311 715q0 -99 62 -164.5t159 -65.5t159.5 65.5t62.5 164.5t-62 164t-160 65q-97 0 -159 -65t-62 -164z" />
    <glyph glyph-name="yen" unicode="&#xa5;" horiz-adv-x="1064" 
d="M369 0v293h-308v184h308v55l-37 95h-271v184h199l-240 619h345l176 -549h4l164 549h335l-235 -619h195v-184h-267l-41 -107v-43h308v-184h-308v-293h-327z" />
    <glyph glyph-name="brokenbar" unicode="&#xa6;" horiz-adv-x="454" 
d="M98 -358v716h258v-716h-258zM98 666v716h258v-716h-258z" />
    <glyph glyph-name="section" unicode="&#xa7;" horiz-adv-x="1064" 
d="M115 -201l24 264q60 -32 150 -61t147 -29q150 0 150 105q0 45 -29.5 74.5t-116.5 74.5l-121 66q-229 121 -229 305q0 48 12.5 89t27.5 66t44 50.5t46.5 36.5t49.5 30q-31 26 -48.5 43t-42.5 50t-37.5 74.5t-12.5 92.5q0 83 39 148t103 102t136 55.5t146 18.5
q67 0 142 -12.5t108.5 -22t93.5 -28.5l-25 -256q-4 1 -33.5 12.5t-38.5 14.5t-35.5 12t-42 12.5t-39 8.5t-44.5 7t-43 2q-131 0 -131 -94q0 -33 27 -57.5t108 -63.5l123 -57q143 -73 197.5 -148.5t54.5 -179.5q0 -82 -37 -160.5t-115 -134.5q53 -31 88 -95.5t35 -145.5
q0 -155 -125 -249.5t-334 -94.5q-117 0 -222 23.5t-150 51.5zM567 707l-131 71q-24 -35 -35.5 -62t-11.5 -65q0 -91 119 -157l133 -80q1 1 6.5 11t6.5 12.5t6 12t6.5 14t5.5 13t5 15t3.5 15t3 16.5t0.5 16q0 104 -117 168z" />
    <glyph glyph-name="dieresis" unicode="&#xa8;" horiz-adv-x="495" 
d="M-63 1229v274h258v-274h-258zM301 1229v274h258v-274h-258z" />
    <glyph glyph-name="copyright" unicode="&#xa9;" horiz-adv-x="1638" 
d="M977 598h197q-3 -145 -94.5 -227t-250.5 -82q-182 0 -289.5 119.5t-107.5 306.5q0 186 107.5 305t289.5 119q159 0 250.5 -82.5t94.5 -227.5h-197q-19 60 -51 88.5t-97 28.5q-76 0 -119.5 -63.5t-43.5 -167.5q0 -106 43.5 -170t119.5 -64q65 0 97 28.5t51 88.5zM80 715
q0 150 58.5 287t157.5 236t236 157.5t287 58.5t287 -58.5t236.5 -157.5t158 -236t58.5 -287t-58.5 -287t-158 -236.5t-236.5 -158t-287 -58.5t-287 58.5t-236 158t-157.5 236.5t-58.5 287zM289 715q0 -144 71 -266.5t193 -193.5t266 -71q108 0 206.5 42t169.5 113t113 169.5
t42 206.5q0 144 -71 266t-193.5 193t-266.5 71t-266 -71t-193 -193t-71 -266z" />
    <glyph glyph-name="ordfeminine" unicode="&#xaa;" horiz-adv-x="757" 
d="M147 1257l-8 158q111 39 269 39q90 0 150 -17t90.5 -51t42 -72.5t11.5 -92.5v-269q0 -70 11 -141h-217q-11 80 -11 88q-55 -52 -101 -74t-108 -22q-106 0 -168.5 53.5t-62.5 142.5q0 103 92 159t277 56h63v21q0 34 -32.5 59t-98.5 25q-97 0 -199 -62zM477 1092v20h-26
q-181 0 -181 -104q0 -34 22.5 -52t61.5 -18q123 0 123 154z" />
    <glyph glyph-name="guillemotleft" unicode="&#xab;" horiz-adv-x="1099" 
d="M686 954h291l-182 -422l182 -421h-291l-199 421zM268 954h291l-182 -422l182 -421h-291l-198 421z" />
    <glyph glyph-name="logicalnot" unicode="&#xac;" horiz-adv-x="1228" 
d="M96 625v258h1037v-662h-259v404h-778z" />
    <glyph glyph-name="uni00AD" unicode="&#xad;" horiz-adv-x="684" 
d="M78 453v282h528v-282h-528z" />
    <glyph glyph-name="registered" unicode="&#xae;" horiz-adv-x="1638" 
d="M80 715q0 150 58.5 287t157.5 236t236 157.5t287 58.5t287 -58.5t236.5 -157.5t158 -236t58.5 -287t-58.5 -287t-158 -236.5t-236.5 -158t-287 -58.5t-287 58.5t-236 158t-157.5 236.5t-58.5 287zM289 715q0 -144 71 -266.5t193 -193.5t266 -71q108 0 206.5 42t169.5 113
t113 169.5t42 206.5q0 144 -71 266t-193.5 193t-266.5 71t-266 -71t-193 -193t-71 -266zM530 315v805h324q155 0 230 -52.5t75 -182.5q0 -185 -184 -221l155 -349h-196l-139 336h-72v-336h-193zM723 965v-158h119q65 0 95 18.5t30 59.5q0 42 -30 61t-95 19h-119z" />
    <glyph glyph-name="macron" unicode="&#xaf;" horiz-adv-x="495" 
d="M-68 1278v201h631v-201h-631z" />
    <glyph glyph-name="degree" unicode="&#xb0;" horiz-adv-x="819" 
d="M109 1153q0 125 88.5 213t212.5 88t212.5 -88t88.5 -213t-88.5 -213t-212.5 -88t-212.5 88t-88.5 213zM264 1153q0 -60 43 -102.5t103 -42.5t102.5 42.5t42.5 102.5t-42.5 102.5t-102.5 42.5t-103 -42.5t-43 -102.5z" />
    <glyph glyph-name="plusminus" unicode="&#xb1;" horiz-adv-x="1228" 
d="M96 549v258h389v229h258v-229h390v-258h-390v-230h-258v230h-389zM96 0v258h1037v-258h-1037z" />
    <glyph glyph-name="twosuperior" unicode="&#xb2;" horiz-adv-x="720" 
d="M61 578v174l39 39q9 9 43 41.5t54.5 52.5t54 55t54.5 62t43.5 58.5t33 59.5t10.5 51q0 49 -31 74t-88 25q-94 0 -184 -66l-14 199q34 15 54.5 22.5t80 18t129.5 10.5q150 0 230.5 -60.5t80.5 -176.5q0 -99 -73 -198.5t-220 -232.5l-22 -20v-4h323v-184h-598z" />
    <glyph glyph-name="threesuperior" unicode="&#xb3;" horiz-adv-x="720" 
d="M184 938v164h60q155 0 155 88q0 43 -37.5 65.5t-93.5 22.5q-84 0 -182 -41l-10 174q144 43 239 43q75 0 132 -9.5t107 -33t76.5 -68t26.5 -108.5q0 -84 -60 -139t-130 -60v-4q24 -2 47 -7.5t52 -19.5t50 -34.5t35.5 -56t14.5 -80.5q0 -128 -98.5 -196.5t-266.5 -68.5
q-29 0 -54.5 1t-48 4t-38 5t-35 6.5t-26.5 6t-25 7t-19 5.5l11 184q3 -1 26 -9.5t36 -12t36.5 -10t49 -9t52.5 -2.5q61 0 101.5 24.5t40.5 64.5q0 51 -42 77.5t-116 26.5h-66z" />
    <glyph glyph-name="acute" unicode="&#xb4;" horiz-adv-x="495" 
d="M201 1516h315l-205 -299h-209z" />
    <glyph glyph-name="mu" unicode="&#xb5;" horiz-adv-x="1175" 
d="M102 -442v1509h369v-641q0 -78 24.5 -115t79.5 -37q50 0 80.5 29t40 65.5t9.5 82.5v616h368v-891q0 -118 12 -176h-346q-8 57 -8 178h-4q-31 -83 -102 -138.5t-150 -55.5q-29 0 -61 16v-442h-312z" />
    <glyph glyph-name="paragraph" unicode="&#xb6;" horiz-adv-x="1288" 
d="M901 -252v1497h-194v-1497h-250v965q-155 0 -249.5 90.5t-94.5 267.5q0 167 99.5 263t264.5 96h674v-1682h-250z" />
    <glyph glyph-name="periodcentered" unicode="&#xb7;" horiz-adv-x="532" 
d="M78 543q0 78 55 133t133 55t133.5 -55t55.5 -133t-55.5 -133.5t-133.5 -55.5t-133 55.5t-55 133.5z" />
    <glyph glyph-name="cedilla" unicode="&#xb8;" horiz-adv-x="495" 
d="M201 12h118l-71 -131q36 8 76 8q78 0 123 -39t45 -110q0 -85 -75 -140t-196 -55q-119 0 -211 37l41 107q87 -33 135 -33q113 0 113 78q0 27 -19 44t-57 17q-40 0 -76 -16l-53 45z" />
    <glyph glyph-name="onesuperior" unicode="&#xb9;" horiz-adv-x="720" 
d="M297 578v591l-135 -106l-107 164l283 203h209v-852h-250z" />
    <glyph glyph-name="ordmasculine" unicode="&#xba;" horiz-adv-x="757" 
d="M287 1126q0 -82 19 -129t71 -47q29 0 48.5 13.5t29 40t13 55t3.5 67.5t-3.5 68.5t-13 56.5t-29 41.5t-48.5 14.5q-52 0 -71 -49t-19 -132zM29 1126q0 67 19 124t58.5 104t108.5 73.5t162 26.5q94 0 164 -26.5t110 -73.5t59 -104t19 -124t-19 -123.5t-59 -102t-110 -71.5
t-164 -26q-93 0 -162 26t-108.5 71.5t-58.5 102t-19 123.5z" />
    <glyph glyph-name="guillemotright" unicode="&#xbb;" horiz-adv-x="1099" 
d="M541 111l182 421l-182 422h290l199 -422l-199 -421h-290zM123 111l182 421l-182 422h291l198 -422l-198 -421h-291z" />
    <glyph glyph-name="onequarter" unicode="&#xbc;" horiz-adv-x="1667" 
d="M1264 0v150h-344v204l305 498h280v-539h105v-163h-105v-150h-241zM1264 313v330h-4l-181 -330h185zM410 -70l649 1569h201l-650 -1569h-200zM299 578v591l-135 -106l-107 164l283 203h209v-852h-250z" />
    <glyph glyph-name="onehalf" unicode="&#xbd;" horiz-adv-x="1667" 
d="M369 -70l649 1569h201l-650 -1569h-200zM299 578v591l-135 -106l-107 164l283 203h209v-852h-250zM1012 0v174l39 39q7 6 43 41t54.5 53.5t53.5 55t55 62.5t42.5 58t33 60t10.5 51q0 98 -118 98q-96 0 -185 -65l-14 198q35 15 54.5 22.5t79.5 18.5t130 11q150 0 231 -61
t81 -177q0 -68 -40 -142t-98 -137t-155 -151l-23 -21v-4h324v-184h-598z" />
    <glyph glyph-name="threequarters" unicode="&#xbe;" horiz-adv-x="1667" 
d="M1264 0v150h-344v204l305 498h280v-539h105v-163h-105v-150h-241zM1264 313v330h-4l-181 -330h185zM420 -70l649 1569h201l-649 -1569h-201zM186 938v164h60q155 0 155 88q0 43 -37.5 65.5t-93.5 22.5q-84 0 -182 -41l-10 174q144 43 239 43q75 0 132 -9.5t107 -33
t76.5 -68t26.5 -108.5q0 -84 -60 -139t-130 -60v-4q24 -2 47 -7.5t52 -19.5t50 -34.5t35.5 -56t14.5 -80.5q0 -128 -98.5 -196.5t-266.5 -68.5q-29 0 -54.5 1t-48 4t-38 5t-35 6.5t-26.5 6t-25 7t-19 5.5l11 184q3 -1 26 -9.5t36 -12t36.5 -10t49 -9t52.5 -2.5
q61 0 101.5 24.5t40.5 64.5q0 51 -42 77.5t-116 26.5h-66z" />
    <glyph glyph-name="questiondown" unicode="&#xbf;" horiz-adv-x="948" 
d="M332 590h315v-39q0 -59 -21.5 -114t-51.5 -98t-60.5 -84.5t-52 -91.5t-21.5 -102q0 -80 48 -122.5t128 -42.5q119 0 265 67l12 -291q-48 -23 -159 -41t-212 -18q-467 0 -467 371q0 77 28.5 150t69.5 128t81.5 104.5t69 99.5t28.5 93v31zM326 739v328h327v-328h-327z" />
    <glyph glyph-name="Agrave" unicode="&#xc0;" horiz-adv-x="1366" 
d="M963 0l-76 303h-420l-92 -303h-369l475 1430h424l455 -1430h-397zM815 578l-125 561h-4l-154 -561h283zM621 1530l-205 299h315l98 -299h-208z" />
    <glyph glyph-name="Aacute" unicode="&#xc1;" horiz-adv-x="1366" 
d="M963 0l-76 303h-420l-92 -303h-369l475 1430h424l455 -1430h-397zM815 578l-125 561h-4l-154 -561h283zM637 1829h315l-204 -299h-209z" />
    <glyph glyph-name="Acircumflex" unicode="&#xc2;" horiz-adv-x="1366" 
d="M963 0l-76 303h-420l-92 -303h-369l475 1430h424l455 -1430h-397zM815 578l-125 561h-4l-154 -561h283zM514 1829h344l141 -299h-233l-84 172l-80 -172h-233z" />
    <glyph glyph-name="Atilde" unicode="&#xc3;" horiz-adv-x="1366" 
d="M963 0l-76 303h-420l-92 -303h-369l475 1430h424l455 -1430h-397zM815 578l-125 561h-4l-154 -561h283zM852 1815h164q0 -67 -22.5 -127.5t-69.5 -101t-109 -40.5q-59 0 -129 27q-3 1 -16.5 7t-16.5 7t-14 5.5t-15 5.5t-12.5 4t-14 3.5t-12.5 1.5t-14 1q-24 0 -39.5 -19
t-15.5 -47h-164q0 67 22.5 127.5t69.5 100.5t109 40q63 0 129 -28q7 -3 21.5 -8.5t21.5 -8t18 -6.5t18.5 -5.5t17 -3t18.5 -1.5q24 0 39.5 19t15.5 47z" />
    <glyph glyph-name="Adieresis" unicode="&#xc4;" horiz-adv-x="1366" 
d="M963 0l-76 303h-420l-92 -303h-369l475 1430h424l455 -1430h-397zM815 578l-125 561h-4l-154 -561h283zM373 1542v275h258v-275h-258zM737 1542v275h258v-275h-258z" />
    <glyph glyph-name="Aring" unicode="&#xc5;" horiz-adv-x="1366" 
d="M963 0l-76 303h-420l-92 -303h-369l475 1430h424l455 -1430h-397zM815 578l-125 561h-4l-154 -561h283zM440 1720q0 101 71.5 172.5t172.5 71.5t172.5 -71.5t71.5 -172.5t-71.5 -172t-172.5 -71t-172.5 71t-71.5 172zM559 1720q0 -52 36.5 -88.5t88.5 -36.5t88.5 36.5
t36.5 88.5t-36.5 88.5t-88.5 36.5t-88.5 -36.5t-36.5 -88.5z" />
    <glyph glyph-name="AE" unicode="&#xc6;" horiz-adv-x="1820" 
d="M903 578v643h-4l-256 -643h260zM903 0v303h-368l-121 -303h-398l635 1430h1082v-283h-469v-275h440v-282h-440v-307h489v-283h-850z" />
    <glyph glyph-name="Ccedilla" unicode="&#xc7;" horiz-adv-x="1214" 
d="M1135 362l16 -331q-183 -56 -352 -56q-7 0 -21 1t-18 1l-53 -96q36 8 75 8q78 0 123 -39t45 -110q0 -85 -74.5 -140t-195.5 -55q-119 0 -211 37l41 107q87 -33 135 -33q113 0 113 78q0 27 -19 44t-57 17q-40 0 -76 -16l-53 45l94 166q-260 39 -410.5 227t-150.5 508
q0 159 45.5 292t133.5 230.5t224 152t308 54.5q184 0 346 -65l-21 -316q-137 82 -278 82q-182 0 -271.5 -112.5t-89.5 -325.5q0 -190 100 -312t277 -122q90 0 161.5 25.5t113.5 53.5z" />
    <glyph glyph-name="Egrave" unicode="&#xc8;" horiz-adv-x="1099" 
d="M129 0v1430h877v-283h-500v-275h475v-282h-475v-307h526v-283h-903zM508 1530l-205 299h315l99 -299h-209z" />
    <glyph glyph-name="Eacute" unicode="&#xc9;" horiz-adv-x="1099" 
d="M129 0v1430h877v-283h-500v-275h475v-282h-475v-307h526v-283h-903zM524 1829h316l-205 -299h-209z" />
    <glyph glyph-name="Ecircumflex" unicode="&#xca;" horiz-adv-x="1099" 
d="M129 0v1430h877v-283h-500v-275h475v-282h-475v-307h526v-283h-903zM401 1829h344l142 -299h-234l-84 172l-80 -172h-233z" />
    <glyph glyph-name="Edieresis" unicode="&#xcb;" horiz-adv-x="1099" 
d="M129 0v1430h877v-283h-500v-275h475v-282h-475v-307h526v-283h-903zM260 1542v275h258v-275h-258zM625 1542v275h258v-275h-258z" />
    <glyph glyph-name="Igrave" unicode="&#xcc;" horiz-adv-x="643" 
d="M129 0v1430h385v-1430h-385zM258 1530l-205 299h316l98 -299h-209z" />
    <glyph glyph-name="Iacute" unicode="&#xcd;" horiz-adv-x="643" 
d="M129 0v1430h385v-1430h-385zM274 1829h316l-205 -299h-209z" />
    <glyph glyph-name="Icircumflex" unicode="&#xce;" horiz-adv-x="643" 
d="M129 0v1430h385v-1430h-385zM152 1829h344l141 -299h-234l-84 172l-79 -172h-234z" />
    <glyph glyph-name="Idieresis" unicode="&#xcf;" horiz-adv-x="643" 
d="M129 0v1430h385v-1430h-385zM10 1542v275h258v-275h-258zM375 1542v275h258v-275h-258z" />
    <glyph glyph-name="Eth" unicode="&#xd0;" horiz-adv-x="1402" 
d="M129 0v631h-129v200h129v599h551q310 0 482.5 -191t172.5 -516q0 -365 -183.5 -544t-530.5 -179h-492zM514 1147v-316h205v-200h-205v-357h84q164 0 248 112.5t84 322.5q0 107 -20.5 186t-54 127t-85 76.5t-104.5 38.5t-121 10h-31z" />
    <glyph glyph-name="Ntilde" unicode="&#xd1;" horiz-adv-x="1402" 
d="M831 0l-366 991h-8v-991h-336v1430h446l375 -986h4v986h336v-1430h-451zM870 1815h164q0 -68 -22.5 -128t-69 -100.5t-108.5 -40.5q-58 0 -129 27q-3 1 -16.5 7t-16.5 7t-14 5.5t-15 5.5t-12.5 4t-14 3.5t-12.5 1.5t-14 1q-24 0 -39.5 -19t-15.5 -47h-164q0 68 22.5 128
t69 100t108.5 40q63 0 129 -28q7 -3 21.5 -8.5t21.5 -8t18 -6.5t18.5 -5.5t17 -3t18.5 -1.5q24 0 39.5 19t15.5 47z" />
    <glyph glyph-name="Ograve" unicode="&#xd2;" horiz-adv-x="1441" 
d="M86 715q0 154 36.5 280t97.5 210t143.5 141t172 82.5t185.5 25.5t185.5 -25.5t172 -82.5t143.5 -141t97.5 -210t36.5 -280t-36.5 -280t-97.5 -210t-143.5 -141.5t-172 -83t-185.5 -25.5t-185.5 25.5t-172 83t-143.5 141.5t-97.5 210t-36.5 280zM477 715
q0 -218 60.5 -341.5t179.5 -123.5h2q119 0 179 123.5t60 341.5q0 216 -60.5 340.5t-178.5 124.5q-120 0 -181 -124.5t-61 -340.5zM657 1530l-204 299h315l98 -299h-209z" />
    <glyph glyph-name="Oacute" unicode="&#xd3;" horiz-adv-x="1441" 
d="M86 715q0 154 36.5 280t97.5 210t143.5 141t172 82.5t185.5 25.5t185.5 -25.5t172 -82.5t143.5 -141t97.5 -210t36.5 -280t-36.5 -280t-97.5 -210t-143.5 -141.5t-172 -83t-185.5 -25.5t-185.5 25.5t-172 83t-143.5 141.5t-97.5 210t-36.5 280zM477 715
q0 -218 60.5 -341.5t179.5 -123.5h2q119 0 179 123.5t60 341.5q0 216 -60.5 340.5t-178.5 124.5q-120 0 -181 -124.5t-61 -340.5zM674 1829h315l-205 -299h-209z" />
    <glyph glyph-name="Ocircumflex" unicode="&#xd4;" horiz-adv-x="1441" 
d="M86 715q0 154 36.5 280t97.5 210t143.5 141t172 82.5t185.5 25.5t185.5 -25.5t172 -82.5t143.5 -141t97.5 -210t36.5 -280t-36.5 -280t-97.5 -210t-143.5 -141.5t-172 -83t-185.5 -25.5t-185.5 25.5t-172 83t-143.5 141.5t-97.5 210t-36.5 280zM477 715
q0 -218 60.5 -341.5t179.5 -123.5h2q119 0 179 123.5t60 341.5q0 216 -60.5 340.5t-178.5 124.5q-120 0 -181 -124.5t-61 -340.5zM551 1829h344l141 -299h-233l-84 172l-80 -172h-233z" />
    <glyph glyph-name="Otilde" unicode="&#xd5;" horiz-adv-x="1441" 
d="M86 715q0 154 36.5 280t97.5 210t143.5 141t172 82.5t185.5 25.5t185.5 -25.5t172 -82.5t143.5 -141t97.5 -210t36.5 -280t-36.5 -280t-97.5 -210t-143.5 -141.5t-172 -83t-185.5 -25.5t-185.5 25.5t-172 83t-143.5 141.5t-97.5 210t-36.5 280zM477 715
q0 -218 60.5 -341.5t179.5 -123.5h2q119 0 179 123.5t60 341.5q0 216 -60.5 340.5t-178.5 124.5q-120 0 -181 -124.5t-61 -340.5zM889 1815h164q0 -67 -22.5 -127.5t-69.5 -101t-109 -40.5q-58 0 -129 27q-3 1 -16.5 7t-16.5 7t-14 5.5t-15 5.5t-12.5 4t-14 3.5t-12.5 1.5
t-14 1q-24 0 -39.5 -19t-15.5 -47h-164q0 67 22.5 127.5t69.5 100.5t109 40q63 0 129 -28q7 -3 21.5 -8.5t21.5 -8t18 -6.5t18.5 -5.5t17 -3t18.5 -1.5q24 0 39.5 19t15.5 47z" />
    <glyph glyph-name="Odieresis" unicode="&#xd6;" horiz-adv-x="1441" 
d="M86 715q0 154 36.5 280t97.5 210t143.5 141t172 82.5t185.5 25.5t185.5 -25.5t172 -82.5t143.5 -141t97.5 -210t36.5 -280t-36.5 -280t-97.5 -210t-143.5 -141.5t-172 -83t-185.5 -25.5t-185.5 25.5t-172 83t-143.5 141.5t-97.5 210t-36.5 280zM477 715
q0 -218 60.5 -341.5t179.5 -123.5h2q119 0 179 123.5t60 341.5q0 216 -60.5 340.5t-178.5 124.5q-120 0 -181 -124.5t-61 -340.5zM410 1542v275h258v-275h-258zM774 1542v275h258v-275h-258z" />
    <glyph glyph-name="multiply" unicode="&#xd7;" horiz-adv-x="1228" 
d="M438 518l-311 311l176 177l311 -312l312 312l176 -177l-314 -311l314 -311l-176 -176l-312 313l-311 -313l-176 176z" />
    <glyph glyph-name="Oslash" unicode="&#xd8;" horiz-adv-x="1441" 
d="M492 530l409 517q-63 133 -182 133q-120 0 -181 -124.5t-61 -340.5q0 -103 15 -185zM946 891l-409 -514q60 -127 180 -127h2q119 0 179 123.5t60 341.5q0 99 -12 176zM88 25l145 182q-147 194 -147 508q0 154 36.5 280t97.5 210t143.5 141t172 82.5t185.5 25.5
q228 0 395 -137l133 170l105 -82l-146 -182q148 -192 148 -508q0 -154 -36.5 -280t-97.5 -210t-143.5 -141.5t-172 -83t-185.5 -25.5q-228 0 -395 136l-133 -168z" />
    <glyph glyph-name="Ugrave" unicode="&#xd9;" horiz-adv-x="1327" 
d="M496 1430v-906q-3 -127 35 -196.5t133 -69.5q49 0 82 18.5t51.5 55.5t26 83t7.5 109v906h377v-893q0 -152 -42 -263.5t-118 -175t-171 -93.5t-213 -30q-93 0 -172.5 18t-149 60t-118.5 105.5t-77 160t-28 218.5v893h377zM600 1530l-205 299h316l98 -299h-209z" />
    <glyph glyph-name="Uacute" unicode="&#xda;" horiz-adv-x="1327" 
d="M496 1430v-906q-3 -127 35 -196.5t133 -69.5q49 0 82 18.5t51.5 55.5t26 83t7.5 109v906h377v-893q0 -152 -42 -263.5t-118 -175t-171 -93.5t-213 -30q-93 0 -172.5 18t-149 60t-118.5 105.5t-77 160t-28 218.5v893h377zM616 1829h316l-205 -299h-209z" />
    <glyph glyph-name="Ucircumflex" unicode="&#xdb;" horiz-adv-x="1327" 
d="M496 1430v-906q-3 -127 35 -196.5t133 -69.5q49 0 82 18.5t51.5 55.5t26 83t7.5 109v906h377v-893q0 -152 -42 -263.5t-118 -175t-171 -93.5t-213 -30q-93 0 -172.5 18t-149 60t-118.5 105.5t-77 160t-28 218.5v893h377zM494 1829h344l141 -299h-234l-83 172l-80 -172
h-234z" />
    <glyph glyph-name="Udieresis" unicode="&#xdc;" horiz-adv-x="1327" 
d="M496 1430v-906q-3 -127 35 -196.5t133 -69.5q49 0 82 18.5t51.5 55.5t26 83t7.5 109v906h377v-893q0 -152 -42 -263.5t-118 -175t-171 -93.5t-213 -30q-93 0 -172.5 18t-149 60t-118.5 105.5t-77 160t-28 218.5v893h377zM352 1542v275h258v-275h-258zM717 1542v275h258
v-275h-258z" />
    <glyph glyph-name="Yacute" unicode="&#xdd;" horiz-adv-x="1249" 
d="M432 0v520l-432 910h438l197 -549h4l186 549h424l-432 -910v-520h-385zM578 1829h315l-205 -299h-209z" />
    <glyph glyph-name="Thorn" unicode="&#xde;" horiz-adv-x="1175" 
d="M129 0v1430h385v-185h90q524 0 524 -473q0 -214 -124 -335.5t-330 -121.5h-160v-315h-385zM498 590h67q78 0 128 50.5t50 135.5q0 98 -49 146.5t-139 48.5h-57v-381z" />
    <glyph glyph-name="germandbls" unicode="&#xdf;" horiz-adv-x="1214" 
d="M119 0v1067q0 100 27.5 186t84.5 156.5t157 111t233 40.5q231 0 356 -114.5t125 -295.5q0 -135 -65 -227.5t-167 -114.5v-4q49 -4 95.5 -28.5t88.5 -72t67.5 -130t25.5 -189.5q0 -84 -26 -153t-69 -114.5t-101.5 -76t-120.5 -44t-128 -13.5q-72 0 -131 12l9 260
q15 -6 53 -6q66 0 101.5 55.5t35.5 143.5q0 215 -178 215v258q25 0 45.5 3.5t44 16t39.5 33.5t26.5 58t10.5 87q0 90 -34.5 140.5t-100.5 50.5q-68 0 -102 -47t-34 -127v-1137h-368z" />
    <glyph glyph-name="agrave" unicode="&#xe0;" 
d="M1036 696v-460q0 -100 13 -236h-328q-1 16 -4.5 46t-5.5 54.5t-2 46.5q-82 -92 -154 -132t-166 -40q-142 0 -232.5 94t-90.5 246q0 365 548 365h95v33q0 58 -50.5 101.5t-150.5 43.5q-148 0 -307 -100l-13 264q187 70 400 70q109 0 190 -20.5t130 -55t78 -87t39.5 -107.5
t10.5 -126zM709 481v35h-43q-129 0 -201 -43t-72 -133q0 -131 127 -131q189 0 189 272zM506 1217l-205 299h315l99 -299h-209z" />
    <glyph glyph-name="aacute" unicode="&#xe1;" 
d="M1036 696v-460q0 -100 13 -236h-328q-1 16 -4.5 46t-5.5 54.5t-2 46.5q-82 -92 -154 -132t-166 -40q-142 0 -232.5 94t-90.5 246q0 365 548 365h95v33q0 58 -50.5 101.5t-150.5 43.5q-148 0 -307 -100l-13 264q187 70 400 70q109 0 190 -20.5t130 -55t78 -87t39.5 -107.5
t10.5 -126zM709 481v35h-43q-129 0 -201 -43t-72 -133q0 -131 127 -131q189 0 189 272zM522 1516h316l-205 -299h-209z" />
    <glyph glyph-name="acircumflex" unicode="&#xe2;" 
d="M1036 696v-460q0 -100 13 -236h-328q-1 16 -4.5 46t-5.5 54.5t-2 46.5q-82 -92 -154 -132t-166 -40q-142 0 -232.5 94t-90.5 246q0 365 548 365h95v33q0 58 -50.5 101.5t-150.5 43.5q-148 0 -307 -100l-13 264q187 70 400 70q109 0 190 -20.5t130 -55t78 -87t39.5 -107.5
t10.5 -126zM709 481v35h-43q-129 0 -201 -43t-72 -133q0 -131 127 -131q189 0 189 272zM399 1516h344l142 -299h-234l-84 172l-80 -172h-233z" />
    <glyph glyph-name="atilde" unicode="&#xe3;" 
d="M1036 696v-460q0 -100 13 -236h-328q-1 16 -4.5 46t-5.5 54.5t-2 46.5q-82 -92 -154 -132t-166 -40q-142 0 -232.5 94t-90.5 246q0 365 548 365h95v33q0 58 -50.5 101.5t-150.5 43.5q-148 0 -307 -100l-13 264q187 70 400 70q109 0 190 -20.5t130 -55t78 -87t39.5 -107.5
t10.5 -126zM709 481v35h-43q-129 0 -201 -43t-72 -133q0 -131 127 -131q189 0 189 272zM737 1501h164q0 -67 -22.5 -127.5t-69.5 -100.5t-109 -40q-58 0 -129 27q-80 34 -114 34q-25 0 -40.5 -18.5t-15.5 -46.5h-163q0 68 22.5 128t69 100t108.5 40q61 0 129 -29
q5 -2 19 -7.5t18.5 -7t15.5 -5.5t16.5 -5.5t14.5 -3.5t16 -2.5t15 -0.5q24 0 39.5 18.5t15.5 46.5z" />
    <glyph glyph-name="adieresis" unicode="&#xe4;" 
d="M1036 696v-460q0 -100 13 -236h-328q-1 16 -4.5 46t-5.5 54.5t-2 46.5q-82 -92 -154 -132t-166 -40q-142 0 -232.5 94t-90.5 246q0 365 548 365h95v33q0 58 -50.5 101.5t-150.5 43.5q-148 0 -307 -100l-13 264q187 70 400 70q109 0 190 -20.5t130 -55t78 -87t39.5 -107.5
t10.5 -126zM709 481v35h-43q-129 0 -201 -43t-72 -133q0 -131 127 -131q189 0 189 272zM258 1229v274h258v-274h-258zM623 1229v274h258v-274h-258z" />
    <glyph glyph-name="aring" unicode="&#xe5;" 
d="M1036 696v-460q0 -100 13 -236h-328q-1 16 -4.5 46t-5.5 54.5t-2 46.5q-82 -92 -154 -132t-166 -40q-142 0 -232.5 94t-90.5 246q0 365 548 365h95v33q0 58 -50.5 101.5t-150.5 43.5q-148 0 -307 -100l-13 264q187 70 400 70q109 0 190 -20.5t130 -55t78 -87t39.5 -107.5
t10.5 -126zM709 481v35h-43q-129 0 -201 -43t-72 -133q0 -131 127 -131q189 0 189 272zM326 1407q0 101 71 172.5t172 71.5t172.5 -71.5t71.5 -172.5t-71.5 -172.5t-172.5 -71.5t-172 71.5t-71 172.5zM444 1407q0 -53 36 -89t89 -36t89 36t36 89t-36 89t-89 36t-89 -36
t-36 -89z" />
    <glyph glyph-name="ae" unicode="&#xe6;" horiz-adv-x="1705" 
d="M705 481v35h-43q-129 0 -201 -43t-72 -133q0 -131 127 -131q189 0 189 272zM993 625h316v30q0 110 -34.5 160.5t-115.5 50.5q-78 0 -122 -65t-44 -176zM197 758l-13 264q187 70 400 70q212 0 309 -127h4q39 60 109 93.5t147 33.5q121 0 217 -45.5t155 -123.5t89.5 -176.5
t30.5 -209.5v-105h-644q13 -223 267 -223q117 0 311 84l8 -256q-180 -59 -373 -62q-291 0 -434 172q-80 -95 -162 -133.5t-233 -38.5q-142 0 -233 94t-91 246q0 365 549 365h95v33q0 58 -50.5 101.5t-150.5 43.5q-148 0 -307 -100z" />
    <glyph glyph-name="ccedilla" unicode="&#xe7;" horiz-adv-x="948" 
d="M893 297l10 -266q-41 -20 -136 -38t-159 -18l-51 -94q36 8 76 8q78 0 123 -39t45 -110q0 -85 -75 -140t-196 -55q-119 0 -211 37l41 107q87 -33 136 -33q112 0 112 78q0 27 -19 44t-57 17q-39 0 -75 -16l-54 45l91 160q-111 18 -193.5 69t-130.5 126.5t-71 163.5t-23 189
q0 114 29 211t89.5 177t165.5 126t246 46q147 0 287 -52l-19 -268q-2 1 -15 6.5t-18.5 7.5t-19 7t-22.5 7.5t-23 6.5t-26 5.5t-26.5 3t-29.5 1.5q-108 0 -174.5 -70.5t-66.5 -214.5q0 -282 235 -282q59 0 118.5 16.5t86.5 30.5z" />
    <glyph glyph-name="egrave" unicode="&#xe8;" 
d="M1063 432h-643q13 -223 266 -223q117 0 311 84l9 -256q-180 -59 -373 -62q-125 -1 -223.5 32t-160 86.5t-101.5 128.5t-56 152.5t-16 164.5q0 111 32.5 210t93.5 176t156.5 122t212.5 45q121 0 217 -45.5t155 -123.5t89.5 -176.5t30.5 -209.5v-105zM412 625h315v30
q0 110 -34 160.5t-115 50.5q-78 0 -122 -65t-44 -176zM506 1217l-205 299h315l99 -299h-209z" />
    <glyph glyph-name="eacute" unicode="&#xe9;" 
d="M1063 432h-643q13 -223 266 -223q117 0 311 84l9 -256q-180 -59 -373 -62q-125 -1 -223.5 32t-160 86.5t-101.5 128.5t-56 152.5t-16 164.5q0 111 32.5 210t93.5 176t156.5 122t212.5 45q121 0 217 -45.5t155 -123.5t89.5 -176.5t30.5 -209.5v-105zM412 625h315v30
q0 110 -34 160.5t-115 50.5q-78 0 -122 -65t-44 -176zM522 1516h316l-205 -299h-209z" />
    <glyph glyph-name="ecircumflex" unicode="&#xea;" 
d="M1063 432h-643q13 -223 266 -223q117 0 311 84l9 -256q-180 -59 -373 -62q-125 -1 -223.5 32t-160 86.5t-101.5 128.5t-56 152.5t-16 164.5q0 111 32.5 210t93.5 176t156.5 122t212.5 45q121 0 217 -45.5t155 -123.5t89.5 -176.5t30.5 -209.5v-105zM412 625h315v30
q0 110 -34 160.5t-115 50.5q-78 0 -122 -65t-44 -176zM399 1516h344l142 -299h-234l-84 172l-80 -172h-233z" />
    <glyph glyph-name="edieresis" unicode="&#xeb;" 
d="M1063 432h-643q13 -223 266 -223q117 0 311 84l9 -256q-180 -59 -373 -62q-125 -1 -223.5 32t-160 86.5t-101.5 128.5t-56 152.5t-16 164.5q0 111 32.5 210t93.5 176t156.5 122t212.5 45q121 0 217 -45.5t155 -123.5t89.5 -176.5t30.5 -209.5v-105zM412 625h315v30
q0 110 -34 160.5t-115 50.5q-78 0 -122 -65t-44 -176zM258 1229v274h258v-274h-258zM623 1229v274h258v-274h-258z" />
    <glyph glyph-name="igrave" unicode="&#xec;" horiz-adv-x="606" 
d="M119 0v1067h368v-1067h-368zM240 1217l-205 299h315l99 -299h-209z" />
    <glyph glyph-name="iacute" unicode="&#xed;" horiz-adv-x="606" 
d="M119 0v1067h368v-1067h-368zM256 1516h315l-204 -299h-209z" />
    <glyph glyph-name="icircumflex" unicode="&#xee;" horiz-adv-x="606" 
d="M119 0v1067h368v-1067h-368zM133 1516h344l141 -299h-233l-84 172l-80 -172h-233z" />
    <glyph glyph-name="idieresis" unicode="&#xef;" horiz-adv-x="606" 
d="M119 0v1067h368v-1067h-368zM-8 1229v274h258v-274h-258zM356 1229v274h258v-274h-258z" />
    <glyph glyph-name="eth" unicode="&#xf0;" horiz-adv-x="1212" 
d="M461 532q0 -66 5.5 -115t20 -95.5t44.5 -71.5t75 -25t75.5 25t45 71.5t20 95.5t5.5 115t-5.5 115.5t-20 96.5t-45 72.5t-75.5 25.5t-75 -25.5t-44.5 -72.5t-20 -96.5t-5.5 -115.5zM279 1438l127 123q129 -26 249 -88l144 88l110 -78l-139 -88q70 -50 139.5 -128
t108.5 -157q61 -121 90 -250t29 -328q0 -90 -17.5 -170t-57.5 -151.5t-100.5 -123.5t-151.5 -82t-204 -30t-204 30t-151 82t-100 123.5t-57.5 151.5t-17.5 170t17 170.5t55 152.5t94.5 124t139.5 82.5t185 30.5q79 0 131 -25t97 -88l4 4q-27 88 -88.5 177.5t-116.5 125.5
l-172 -106l-111 77l166 105q-114 56 -198 76z" />
    <glyph glyph-name="ntilde" unicode="&#xf1;" horiz-adv-x="1175" 
d="M102 0v850q0 119 -12 217h346q8 -57 8 -178h5q8 22 19 43.5t35.5 52t55.5 53t81.5 38.5t109.5 16q144 0 233.5 -87t89.5 -257v-748h-368v641q0 152 -101 152q-65 0 -99 -59t-34 -148v-586h-369zM756 1501h164q0 -67 -22.5 -127.5t-69.5 -100.5t-109 -40q-59 0 -129 27
q-80 34 -115 34q-24 0 -39.5 -18.5t-15.5 -46.5h-164q0 67 22.5 127.5t69.5 100.5t109 40q61 0 129 -29q6 -2 22 -8.5t21 -8t17 -6t19 -5.5t16.5 -2.5t18.5 -1.5q25 0 40.5 18.5t15.5 46.5z" />
    <glyph glyph-name="ograve" unicode="&#xf2;" horiz-adv-x="1212" 
d="M461 532q0 -66 5.5 -115t20 -95.5t44.5 -71.5t75 -25t75.5 25t45 71.5t20 95.5t5.5 115t-5.5 115.5t-20 96.5t-45 72.5t-75.5 25.5t-75 -25.5t-44.5 -72.5t-20 -96.5t-5.5 -115.5zM76 532q0 114 29 211t89.5 177t165.5 126t246 46q113 0 204 -30.5t151.5 -82.5
t100.5 -124.5t57.5 -152.5t17.5 -170t-17.5 -170t-57.5 -151.5t-100.5 -123.5t-151.5 -82t-204 -30t-204 30t-151 82t-100 123.5t-57.5 151.5t-17.5 170zM543 1217l-205 299h315l99 -299h-209z" />
    <glyph glyph-name="oacute" unicode="&#xf3;" horiz-adv-x="1212" 
d="M461 532q0 -66 5.5 -115t20 -95.5t44.5 -71.5t75 -25t75.5 25t45 71.5t20 95.5t5.5 115t-5.5 115.5t-20 96.5t-45 72.5t-75.5 25.5t-75 -25.5t-44.5 -72.5t-20 -96.5t-5.5 -115.5zM76 532q0 114 29 211t89.5 177t165.5 126t246 46q113 0 204 -30.5t151.5 -82.5
t100.5 -124.5t57.5 -152.5t17.5 -170t-17.5 -170t-57.5 -151.5t-100.5 -123.5t-151.5 -82t-204 -30t-204 30t-151 82t-100 123.5t-57.5 151.5t-17.5 170zM559 1516h315l-204 -299h-209z" />
    <glyph glyph-name="ocircumflex" unicode="&#xf4;" horiz-adv-x="1212" 
d="M461 532q0 -66 5.5 -115t20 -95.5t44.5 -71.5t75 -25t75.5 25t45 71.5t20 95.5t5.5 115t-5.5 115.5t-20 96.5t-45 72.5t-75.5 25.5t-75 -25.5t-44.5 -72.5t-20 -96.5t-5.5 -115.5zM76 532q0 114 29 211t89.5 177t165.5 126t246 46q113 0 204 -30.5t151.5 -82.5
t100.5 -124.5t57.5 -152.5t17.5 -170t-17.5 -170t-57.5 -151.5t-100.5 -123.5t-151.5 -82t-204 -30t-204 30t-151 82t-100 123.5t-57.5 151.5t-17.5 170zM436 1516h344l142 -299h-234l-84 172l-80 -172h-233z" />
    <glyph glyph-name="otilde" unicode="&#xf5;" horiz-adv-x="1212" 
d="M461 532q0 -66 5.5 -115t20 -95.5t44.5 -71.5t75 -25t75.5 25t45 71.5t20 95.5t5.5 115t-5.5 115.5t-20 96.5t-45 72.5t-75.5 25.5t-75 -25.5t-44.5 -72.5t-20 -96.5t-5.5 -115.5zM76 532q0 114 29 211t89.5 177t165.5 126t246 46q113 0 204 -30.5t151.5 -82.5
t100.5 -124.5t57.5 -152.5t17.5 -170t-17.5 -170t-57.5 -151.5t-100.5 -123.5t-151.5 -82t-204 -30t-204 30t-151 82t-100 123.5t-57.5 151.5t-17.5 170zM774 1501h164q0 -67 -22.5 -127.5t-69.5 -100.5t-109 -40q-59 0 -129 27q-80 34 -114 34q-25 0 -40.5 -18.5
t-15.5 -46.5h-164q0 67 22.5 127.5t69.5 100.5t109 40q61 0 129 -29q5 -2 19 -7.5t18.5 -7t15.5 -5.5t16.5 -5.5t14.5 -3.5t16 -2.5t15 -0.5q24 0 39.5 18.5t15.5 46.5z" />
    <glyph glyph-name="odieresis" unicode="&#xf6;" horiz-adv-x="1212" 
d="M461 532q0 -66 5.5 -115t20 -95.5t44.5 -71.5t75 -25t75.5 25t45 71.5t20 95.5t5.5 115t-5.5 115.5t-20 96.5t-45 72.5t-75.5 25.5t-75 -25.5t-44.5 -72.5t-20 -96.5t-5.5 -115.5zM76 532q0 114 29 211t89.5 177t165.5 126t246 46q113 0 204 -30.5t151.5 -82.5
t100.5 -124.5t57.5 -152.5t17.5 -170t-17.5 -170t-57.5 -151.5t-100.5 -123.5t-151.5 -82t-204 -30t-204 30t-151 82t-100 123.5t-57.5 151.5t-17.5 170zM295 1229v274h258v-274h-258zM659 1229v274h259v-274h-259z" />
    <glyph glyph-name="divide" unicode="&#xf7;" horiz-adv-x="1228" 
d="M96 389v258h1037v-258h-1037zM426 946q0 78 55 133.5t133 55.5t133.5 -55.5t55.5 -133.5t-55.5 -133t-133.5 -55t-133 55t-55 133zM426 90q0 78 55 133.5t133 55.5t133.5 -55.5t55.5 -133.5t-55.5 -133t-133.5 -55t-133 55t-55 133z" />
    <glyph glyph-name="oslash" unicode="&#xf8;" horiz-adv-x="1212" 
d="M465 438l254 320q-30 84 -113 84q-45 0 -75 -25.5t-44.5 -72.5t-20 -96.5t-5.5 -115.5q0 -63 4 -94zM748 612l-250 -313q33 -74 108 -74q45 0 75.5 25t45 71.5t20 95.5t5.5 115q0 55 -4 80zM117 0l98 123q-139 150 -139 409q0 114 29 211t89.5 177t165.5 126t246 46
q185 0 314 -82l88 110l88 -69l-92 -115q133 -144 133 -404q0 -90 -17.5 -170t-57.5 -151.5t-100.5 -123.5t-151.5 -82t-204 -30q-184 0 -305 78l-96 -123z" />
    <glyph glyph-name="ugrave" unicode="&#xf9;" horiz-adv-x="1175" 
d="M1073 1067v-891q0 -118 12 -176h-346q-8 57 -8 178h-4q-8 -22 -19 -43.5t-35.5 -52t-55.5 -53t-81.5 -38.5t-109.5 -16q-144 0 -234 87t-90 257v748h369v-641q0 -78 24.5 -115t79.5 -37q50 0 80.5 29t40 65.5t9.5 82.5v616h368zM524 1217l-205 299h316l98 -299h-209z" />
    <glyph glyph-name="uacute" unicode="&#xfa;" horiz-adv-x="1175" 
d="M1073 1067v-891q0 -118 12 -176h-346q-8 57 -8 178h-4q-8 -22 -19 -43.5t-35.5 -52t-55.5 -53t-81.5 -38.5t-109.5 -16q-144 0 -234 87t-90 257v748h369v-641q0 -78 24.5 -115t79.5 -37q50 0 80.5 29t40 65.5t9.5 82.5v616h368zM541 1516h315l-205 -299h-209z" />
    <glyph glyph-name="ucircumflex" unicode="&#xfb;" horiz-adv-x="1175" 
d="M1073 1067v-891q0 -118 12 -176h-346q-8 57 -8 178h-4q-8 -22 -19 -43.5t-35.5 -52t-55.5 -53t-81.5 -38.5t-109.5 -16q-144 0 -234 87t-90 257v748h369v-641q0 -78 24.5 -115t79.5 -37q50 0 80.5 29t40 65.5t9.5 82.5v616h368zM418 1516h344l141 -299h-233l-84 172
l-80 -172h-234z" />
    <glyph glyph-name="udieresis" unicode="&#xfc;" horiz-adv-x="1175" 
d="M1073 1067v-891q0 -118 12 -176h-346q-8 57 -8 178h-4q-8 -22 -19 -43.5t-35.5 -52t-55.5 -53t-81.5 -38.5t-109.5 -16q-144 0 -234 87t-90 257v748h369v-641q0 -78 24.5 -115t79.5 -37q50 0 80.5 29t40 65.5t9.5 82.5v616h368zM276 1229v274h259v-274h-259zM641 1229
v274h258v-274h-258z" />
    <glyph glyph-name="yacute" unicode="&#xfd;" 
d="M12 1067h385l191 -680h4l176 680h358l-399 -1190q-21 -61 -41 -104.5t-53 -89t-73 -74t-100 -46.5t-134 -18q-91 0 -205 35l10 266q63 -18 98 -18q83 0 128.5 47.5t45.5 124.5zM522 1516h316l-205 -299h-209z" />
    <glyph glyph-name="thorn" unicode="&#xfe;" horiz-adv-x="1212" 
d="M102 -442v1978h369v-408q0 -49 -8 -225h4q52 102 120 145.5t156 43.5q103 0 181 -44t125 -123t70.5 -182t23.5 -227q0 -77 -14 -151.5t-44 -144t-73.5 -121.5t-108 -83.5t-141.5 -31.5q-103 0 -169.5 42.5t-125.5 137.5h-4q8 -90 8 -191v-415h-369zM471 532
q0 -136 37.5 -217.5t105.5 -81.5q144 0 144 299q0 302 -131 302q-72 0 -114 -83t-42 -219z" />
    <glyph glyph-name="ydieresis" unicode="&#xff;" 
d="M12 1067h385l191 -680h4l176 680h358l-399 -1190q-21 -61 -41 -104.5t-53 -89t-73 -74t-100 -46.5t-134 -18q-91 0 -205 35l10 266q63 -18 98 -18q83 0 128.5 47.5t45.5 124.5zM258 1229v274h258v-274h-258zM623 1229v274h258v-274h-258z" />
    <glyph glyph-name="dotlessi" unicode="&#x131;" horiz-adv-x="606" 
d="M119 0v1067h368v-1067h-368z" />
    <glyph glyph-name="Lslash" unicode="&#x141;" horiz-adv-x="1024" 
d="M129 0v428l-127 -104v233l127 105v768h385v-449l258 215v-233l-258 -215v-457h471v-291h-856z" />
    <glyph glyph-name="lslash" unicode="&#x142;" horiz-adv-x="647" 
d="M139 0v479l-139 -131v234l139 131v823h369v-479l139 131v-234l-139 -131v-823h-369z" />
    <glyph glyph-name="OE" unicode="&#x152;" horiz-adv-x="1857" 
d="M901 270v889q-56 21 -145 21q-291 0 -291 -465t291 -465q91 0 145 20zM1790 283v-283h-674q-66 0 -188 -12q-128 -13 -185 -13q-108 0 -205.5 25.5t-184 83t-149.5 142t-99.5 210t-36.5 279.5t36.5 279.5t99.5 210t149.5 141.5t184 82.5t205.5 25.5q51 0 183 -12
q136 -12 231 -12h610v-283h-481v-275h451v-282h-451v-307h504z" />
    <glyph glyph-name="oe" unicode="&#x153;" horiz-adv-x="1820" 
d="M471 532q0 -66 5.5 -115t20 -95.5t44.5 -71.5t75 -25t75.5 25t45 71.5t20 95.5t5.5 115t-5.5 115.5t-20 96.5t-45 72.5t-75.5 25.5t-75 -25.5t-44.5 -72.5t-20 -96.5t-5.5 -115.5zM86 532q0 114 29 211t89.5 177t165.5 126t246 46q216 0 353 -111q108 111 274 111
q121 0 217 -45.5t155 -123.5t89.5 -176.5t30.5 -209.5v-105h-643q13 -223 266 -223q117 0 311 84l8 -256q-180 -59 -372 -62q-104 0 -188.5 32.5t-137.5 88.5q-134 -121 -363 -121q-113 0 -204 30t-151 82t-100 123.5t-57.5 151.5t-17.5 170zM1083 625h316v30
q0 110 -34.5 160.5t-115.5 50.5q-78 0 -122 -65t-44 -176z" />
    <glyph glyph-name="Scaron" unicode="&#x160;" 
d="M111 31l22 313q50 -29 141.5 -57.5t182.5 -28.5q196 0 196 154q0 34 -10 58t-37 43.5t-51.5 30.5t-75.5 31l-84 33q-171 67 -239 165.5t-68 256.5q0 198 144 311t376 113q219 0 361 -57l-17 -281q-57 29 -137.5 50.5t-157.5 21.5q-87 0 -135.5 -35t-48.5 -100
q0 -55 33.5 -88t130.5 -76l172 -78q54 -24 93.5 -52t75 -70t54.5 -102.5t19 -137.5q0 -229 -151 -351.5t-408 -122.5q-25 0 -51 1t-47.5 3t-46.5 5t-42 5.5t-41.5 7t-36.5 7t-35 7.5t-30 7t-28 7t-23 6zM399 1530l-145 299h233l80 -172l84 172h234l-142 -299h-344z" />
    <glyph glyph-name="scaron" unicode="&#x161;" horiz-adv-x="909" 
d="M70 25l8 284q42 -21 71 -34t88.5 -27.5t118.5 -14.5q152 0 152 76q0 27 -25 46t-94 44l-113 41q-121 43 -170 117.5t-49 183.5q0 73 24.5 134.5t75.5 111t139.5 77.5t205.5 28q153 0 297 -50l-13 -266q-145 66 -262 66q-59 0 -95 -19t-36 -59q0 -27 28 -48t95 -46
l123 -45q110 -40 161.5 -104t51.5 -195q0 -170 -113 -260.5t-344 -90.5q-83 0 -180.5 16t-144.5 34zM285 1217l-146 299h234l80 -173l84 173h233l-141 -299h-344z" />
    <glyph glyph-name="Ydieresis" unicode="&#x178;" horiz-adv-x="1249" 
d="M432 0v520l-432 910h438l197 -549h4l186 549h424l-432 -910v-520h-385zM313 1542v275h258v-275h-258zM678 1542v275h258v-275h-258z" />
    <glyph glyph-name="Zcaron" unicode="&#x17d;" horiz-adv-x="1099" 
d="M59 0v319l549 828h-536v283h962v-306l-567 -841h573v-283h-981zM381 1530l-145 299h233l80 -172l84 172h233l-141 -299h-344z" />
    <glyph glyph-name="zcaron" unicode="&#x17e;" horiz-adv-x="909" 
d="M57 0v309l398 484h-385v274h770v-297l-391 -496h403v-274h-795zM285 1217l-146 299h234l80 -173l84 173h233l-141 -299h-344z" />
    <glyph glyph-name="florin" unicode="&#x192;" horiz-adv-x="1064" 
d="M158 592l8 258h217l39 217q11 59 25 107t42 102.5t65.5 91.5t98 61.5t135.5 24.5q28 0 53.5 -2.5t54.5 -9.5t41 -10t45 -14t34 -11l-33 -233q-49 38 -98 38q-90 0 -115 -163l-31 -199h179l-9 -258h-213l-102 -625q-33 -206 -137.5 -314t-253.5 -108q-20 0 -39.5 2
t-39.5 7l-34 8.5t-34.5 12t-27.5 11.5t-27 12t-21 9l30 231q32 -23 54 -33t53 -10q52 0 80 49t51 185l92 563h-182z" />
    <glyph glyph-name="circumflex" unicode="&#x2c6;" horiz-adv-x="495" 
d="M78 1516h344l141 -299h-233l-84 172l-80 -172h-234z" />
    <glyph glyph-name="caron" unicode="&#x2c7;" horiz-adv-x="495" 
d="M78 1217l-146 299h234l80 -173l84 173h233l-141 -299h-344z" />
    <glyph glyph-name="uni02C9" unicode="&#x2c9;" horiz-adv-x="495" 
d="M-68 1278v201h631v-201h-631z" />
    <glyph glyph-name="breve" unicode="&#x2d8;" horiz-adv-x="495" 
d="M-49 1516h172q0 -45 33.5 -78t91.5 -33t91.5 33t33.5 78h172q0 -145 -79.5 -222t-217.5 -77t-217.5 77t-79.5 222z" />
    <glyph glyph-name="dotaccent" unicode="&#x2d9;" horiz-adv-x="495" 
d="M119 1229v274h258v-274h-258z" />
    <glyph glyph-name="ring" unicode="&#x2da;" horiz-adv-x="495" 
d="M4 1407q0 101 71.5 172.5t172.5 71.5t172.5 -71.5t71.5 -172.5t-71.5 -172.5t-172.5 -71.5t-172.5 71.5t-71.5 172.5zM123 1407q0 -53 36.5 -89t88.5 -36t88.5 36t36.5 89t-36.5 89t-88.5 36t-88.5 -36t-36.5 -89z" />
    <glyph glyph-name="ogonek" unicode="&#x2db;" horiz-adv-x="495" 
d="M553 -338l29 -90q-79 -27 -179 -27q-103 0 -152.5 49.5t-49.5 122.5q0 65 46 133t118 123l49 39h88l-56 -65q-81 -96 -81 -185q0 -48 27.5 -77t82.5 -29q48 0 78 6z" />
    <glyph glyph-name="tilde" unicode="&#x2dc;" horiz-adv-x="495" 
d="M416 1501h164q0 -67 -22.5 -127.5t-69.5 -100.5t-109 -40q-59 0 -129 27q-80 34 -115 34q-24 0 -39.5 -18.5t-15.5 -46.5h-164q0 67 22.5 127.5t69.5 100.5t109 40q61 0 129 -29q6 -2 22 -8.5t21 -8t17 -6t19 -5.5t16.5 -2.5t18.5 -1.5q25 0 40.5 18.5t15.5 46.5z" />
    <glyph glyph-name="hungarumlaut" unicode="&#x2dd;" horiz-adv-x="495" 
d="M-25 1516h316l-205 -299h-209zM385 1516h315l-204 -299h-209z" />
    <glyph glyph-name="uni03A9" unicode="&#x3a9;" horiz-adv-x="1323" 
d="M299 248v6q-92 101 -153.5 240.5t-61.5 308.5q0 126 41.5 242.5t115.5 206t184.5 143t240.5 53.5q112 0 207 -39.5t159.5 -104.5t110.5 -147.5t67 -168t21 -167.5q0 -172 -62.5 -321t-154.5 -246v-6h246v-248h-523v182q82 55 131 187q60 149 60 381q0 192 -69 315
t-195 123q-125 0 -200 -125t-75 -326q0 -211 55 -357.5t136 -197.5v-182h-523v248h242z" />
    <glyph glyph-name="uni03BC" unicode="&#x3bc;" horiz-adv-x="1175" 
d="M102 -442v1509h369v-641q0 -78 24.5 -115t79.5 -37q50 0 80.5 29t40 65.5t9.5 82.5v616h368v-891q0 -118 12 -176h-346q-8 57 -8 178h-4q-31 -83 -102 -138.5t-150 -55.5q-29 0 -61 16v-442h-312z" />
    <glyph glyph-name="pi" unicode="&#x3c0;" horiz-adv-x="1185" 
d="M1145 813h-125v-520q0 -176 24 -293h-288q-35 64 -35 287v526h-219q-7 -175 -38.5 -414t-78.5 -399h-289q47 190 79 427.5t32 385.5q-117 0 -172 -16l-31 207q91 73 336 73h825z" />
    <glyph glyph-name="uni2010" unicode="&#x2010;" horiz-adv-x="684" 
d="M78 453v282h528v-282h-528z" />
    <glyph glyph-name="endash" unicode="&#x2013;" horiz-adv-x="1024" 
d="M0 469v250h1024v-250h-1024z" />
    <glyph glyph-name="emdash" unicode="&#x2014;" horiz-adv-x="2048" 
d="M0 469v250h2048v-250h-2048z" />
    <glyph glyph-name="quoteleft" unicode="&#x2018;" horiz-adv-x="532" 
d="M47 983l172 553h266l-110 -553h-328z" />
    <glyph glyph-name="quoteright" unicode="&#x2019;" horiz-adv-x="532" 
d="M47 983l111 553h327l-172 -553h-266z" />
    <glyph glyph-name="quotesinglbase" unicode="&#x201a;" horiz-adv-x="532" 
d="M47 -225l111 553h327l-172 -553h-266z" />
    <glyph glyph-name="quotedblleft" unicode="&#x201c;" horiz-adv-x="1097" 
d="M119 983l172 553h266l-111 -553h-327zM541 983l172 553h266l-111 -553h-327z" />
    <glyph glyph-name="quotedblright" unicode="&#x201d;" horiz-adv-x="1097" 
d="M541 983l110 553h328l-172 -553h-266zM119 983l110 553h328l-172 -553h-266z" />
    <glyph glyph-name="quotedblbase" unicode="&#x201e;" horiz-adv-x="1097" 
d="M541 -225l110 553h328l-172 -553h-266zM119 -225l110 553h328l-172 -553h-266z" />
    <glyph glyph-name="dagger" unicode="&#x2020;" horiz-adv-x="1062" 
d="M379 0v811h-291v266h291v353h307v-353h289v-266h-289v-811h-307z" />
    <glyph glyph-name="daggerdbl" unicode="&#x2021;" horiz-adv-x="1062" 
d="M381 0v274h-299v258h299v365h-299v258h299v275h299v-275h301v-258h-301v-365h301v-258h-301v-274h-299z" />
    <glyph glyph-name="bullet" unicode="&#x2022;" horiz-adv-x="1024" 
d="M156 715q0 148 104 252t252 104t253 -104t105 -252t-105 -253.5t-253 -105.5q-147 0 -251.5 105.5t-104.5 253.5z" />
    <glyph glyph-name="ellipsis" unicode="&#x2026;" horiz-adv-x="2048" 
d="M178 0v328h328v-328h-328zM860 0v328h328v-328h-328zM1542 0v328h328v-328h-328z" />
    <glyph glyph-name="perthousand" unicode="&#x2030;" horiz-adv-x="1972" 
d="M782 367q0 391 265 391q264 0 264 -391q0 -392 -264 -392q-265 0 -265 392zM975 367q0 -52 2 -84t9 -63t22 -45.5t39 -14.5t39 14.5t21.5 46t8.5 63t2 83.5t-2 83t-8.5 62.5t-21.5 46t-39 14.5t-39 -14.5t-22 -45.5t-9 -63t-2 -83zM72 1063q0 391 264 391t264 -391
t-264 -391t-264 391zM264 1063q0 -52 2 -84t9 -63t22 -45.5t39 -14.5t39 14.5t22 45.5t9 63t2 84q0 51 -2 83t-9 63.5t-22 46t-39 14.5t-39 -14.5t-22 -46t-9 -63.5t-2 -83zM1372 367q0 391 264 391q265 0 265 -391q0 -392 -265 -392q-264 0 -264 392zM1565 367
q0 -52 2 -83.5t8.5 -63t21.5 -46t39 -14.5t39 14.5t22 45.5t9 63t2 84q0 51 -2 83t-9 63t-22 45.5t-39 14.5t-39 -14.5t-21.5 -46t-8.5 -62.5t-2 -83zM936 1499h158l-645 -1569h-158z" />
    <glyph glyph-name="guilsinglleft" unicode="&#x2039;" horiz-adv-x="681" 
d="M268 954h291l-182 -422l182 -421h-291l-198 421z" />
    <glyph glyph-name="guilsinglright" unicode="&#x203a;" horiz-adv-x="681" 
d="M123 111l182 421l-182 422h291l198 -422l-198 -421h-291z" />
    <glyph glyph-name="fraction" unicode="&#x2044;" horiz-adv-x="342" 
d="M-254 -70l649 1569h201l-649 -1569h-201z" />
    <glyph glyph-name="Euro" unicode="&#x20ac;" horiz-adv-x="1400" 
d="M1419 1393l-90 -340q-86 30 -201 30q-80 0 -152.5 -37.5t-119.5 -103.5h436l-43 -168h-448q-6 -60 0 -119h413l-45 -168h-313q49 -61 122.5 -96t147.5 -35q111 0 203 29l12 -377q-127 -33 -317 -33q-132 0 -252 31t-222 92t-176 160.5t-108 228.5h-233l45 168h162
q-3 59 0 119h-207l45 168h190q46 156 160.5 274t264.5 178t313 60q200 0 413 -61z" />
    <glyph glyph-name="afii61289" unicode="&#x2113;" horiz-adv-x="1007" 
d="M866 399l115 -125q-138 -292 -414 -292q-90 0 -158.5 25.5t-110.5 70.5t-65.5 100t-31.5 121v20q-43 -34 -97 -75l-67 159q17 15 53.5 45.5t61.5 52.5t47 44v502q0 250 103.5 385t266.5 135q141 0 211 -103.5t70 -271.5q0 -310 -363 -680l2 -109q1 -84 42 -132t106 -48
q121 0 229 176zM487 1030v-242q86 108 136.5 221.5t50.5 200.5q0 70 -20 105t-66 35q-101 0 -101 -320z" />
    <glyph glyph-name="trademark" unicode="&#x2122;" horiz-adv-x="2048" 
d="M311 578v667h-239v185h704v-185h-239v-667h-226zM1751 578v561h-4l-182 -561h-181l-182 561h-4v-561h-225v852h319l183 -496l182 496h319v-852h-225z" />
    <glyph glyph-name="Omega" unicode="&#x2126;" horiz-adv-x="1323" 
d="M299 248v6q-92 101 -153.5 240.5t-61.5 308.5q0 126 41.5 242.5t115.5 206t184.5 143t240.5 53.5q112 0 207 -39.5t159.5 -104.5t110.5 -147.5t67 -168t21 -167.5q0 -172 -62.5 -321t-154.5 -246v-6h246v-248h-523v182q82 55 131 187q60 149 60 381q0 192 -69 315
t-195 123q-125 0 -200 -125t-75 -326q0 -211 55 -357.5t136 -197.5v-182h-523v248h242z" />
    <glyph glyph-name="estimated" unicode="&#x212e;" horiz-adv-x="1781" 
d="M1712 694h-1331q-10 0 -10 -8v-403q0 -27 18 -45q100 -103 229 -161.5t273 -58.5q156 0 293 65t237 179h117q-111 -131 -282.5 -208t-366.5 -77q-167 0 -318.5 58.5t-261 157t-174.5 235.5t-65 287t65 287t174.5 236t261 157.5t318.5 58.5q168 0 320 -58.5t262.5 -157.5
t175.5 -236t65 -287v-21zM1409 748v403q0 28 -18 49q-100 98 -228.5 153.5t-271.5 55.5q-142 0 -271 -58t-229 -159q-20 -17 -20 -49v-395q0 -15 10 -15h1020q8 0 8 15z" />
    <glyph glyph-name="partialdiff" unicode="&#x2202;" horiz-adv-x="1134" 
d="M205 1266l-78 233q149 119 365 119q89 0 169.5 -30.5t150 -94t120 -154t79.5 -218t29 -279.5q0 -400 -147.5 -628t-409.5 -228q-99 0 -180 45t-130.5 117t-76 156t-26.5 169q0 124 33 227.5t90.5 172t133.5 106t162 37.5q93 0 160.5 -44t95.5 -91h3q2 12 2 57
q0 103 -33.5 198.5t-103.5 161.5t-162 66q-135 0 -246 -98zM512 242h4q57 0 104 65.5t71.5 151t33.5 174.5q-13 48 -60 92.5t-114 44.5q-56 0 -99 -46t-64 -116t-21 -151q0 -90 40 -152.5t105 -62.5z" />
    <glyph glyph-name="uni2206" unicode="&#x2206;" horiz-adv-x="1263" 
d="M47 0v174l416 1278h356l395 -1274v-178h-1167zM354 246h545l-168 493q-13 53 -51 187.5t-47 179.5h-6q-7 -38 -42.5 -160t-49.5 -178z" />
    <glyph glyph-name="product" unicode="&#x220f;" horiz-adv-x="1415" 
d="M1364 1147h-184v-1344h-299v1344h-349v-1344h-299v1344h-184v278h1315v-278z" />
    <glyph glyph-name="summation" unicode="&#x2211;" horiz-adv-x="1073" 
d="M1038 -197h-991v197l436 618l-424 592v215h949v-256h-555v-8l364 -487l-414 -580v-6h635v-285z" />
    <glyph glyph-name="minus" unicode="&#x2212;" horiz-adv-x="1228" 
d="M96 389v258h1037v-258h-1037z" />
    <glyph glyph-name="uni2215" unicode="&#x2215;" horiz-adv-x="342" 
d="M-254 -70l649 1569h201l-649 -1569h-201z" />
    <glyph glyph-name="uni2219" unicode="&#x2219;" horiz-adv-x="532" 
d="M78 543q0 78 55 133t133 55t133.5 -55t55.5 -133t-55.5 -133.5t-133.5 -55.5t-133 55.5t-55 133.5z" />
    <glyph glyph-name="radical" unicode="&#x221a;" horiz-adv-x="1167" 
d="M1186 1722l-432 -1992h-234l-270 864l-141 -57l-48 168l367 149l170 -575q7 -38 21 -105.5t18 -91.5l4 -4q15 122 33 219l309 1425h203z" />
    <glyph glyph-name="infinity" unicode="&#x221e;" horiz-adv-x="1542" 
d="M1448 588v-2q0 -82 -27.5 -151t-73.5 -114t-104 -69.5t-121 -24.5q-94 0 -177 46.5t-171 172.5q-85 -109 -168 -164t-194 -55q-130 0 -225 97.5t-95 250.5q0 157 96 255t242 98q105 0 187.5 -52t160.5 -159q0 1 22 26t26 29t26 27t31 29.5t31.5 25.5t36.5 25.5t38 19
t44.5 17t46.5 8.5t53 4q134 0 224.5 -94t90.5 -246zM432 387h2q37 0 71 14t66.5 42t57 55t57.5 69q-73 104 -104 135q-68 70 -154 70q-81 0 -127.5 -55t-46.5 -144q0 -77 51.5 -131.5t126.5 -54.5zM1116 772h-2q-21 0 -42 -6t-37 -12.5t-37 -23t-31.5 -25t-31 -32t-26.5 -30
t-26.5 -33t-22.5 -28.5q86 -115 140 -155t126 -40q71 0 115.5 59.5t44.5 126.5q0 85 -47 142t-123 57z" />
    <glyph glyph-name="integral" unicode="&#x222b;" horiz-adv-x="825" 
d="M768 1753l-27 -213q-40 16 -67 16q-61 0 -94 -53q-48 -65 -48 -334q0 -163 14.5 -461.5t14.5 -496.5q0 -282 -63 -408q-40 -86 -117.5 -127t-165.5 -41q-98 0 -162 33l35 219q41 -18 80 -18q58 0 82 37q43 62 43 299q0 199 -14.5 507.5t-14.5 485.5q0 184 28.5 292.5
t94.5 182.5q43 49 111.5 75t142.5 26q61 0 127 -21z" />
    <glyph glyph-name="approxequal" unicode="&#x2248;" horiz-adv-x="1050" 
d="M877 934l102 -94q-47 -97 -118 -156t-150 -59q-56 0 -101.5 16.5t-109.5 58.5q-37 25 -55 36t-47 21.5t-58 10.5q-12 0 -24 -2.5t-21.5 -5t-20 -10.5t-17.5 -12t-17 -15.5t-14.5 -16t-15 -19.5t-13.5 -19t-14 -21t-13 -20l-102 94q44 93 120 153t166 60q15 0 29.5 -1
t28.5 -4.5l24 -6t24.5 -8.5t20.5 -8.5t20.5 -11t17.5 -10t19 -10.5l15 -10q5 -3 21.5 -13.5t20.5 -13t17.5 -10.5t18 -10.5t15.5 -8t17 -7t15 -4t17 -3.5t16 -1q50 0 86 34.5t80 106.5zM877 547l102 -92q-48 -98 -119 -157.5t-151 -59.5q-53 0 -98.5 17.5t-110.5 59.5
q-39 26 -56.5 36.5t-46.5 21t-57 10.5q-37 0 -68.5 -21t-49 -44t-44.5 -65q-2 -4 -4 -7l-4 -6l-102 94q43 93 119 153t165 60q20 0 38.5 -2t36 -7t29.5 -9t29 -12.5l24 -12t24 -13.5t20 -12q12 -7 40.5 -25t41.5 -25.5t35 -15t41 -7.5q50 0 84.5 33.5t81.5 107.5z" />
    <glyph glyph-name="notequal" unicode="&#x2260;" horiz-adv-x="1050" 
d="M786 1042l-69 -163h241v-172h-301l-106 -258h407v-173h-471l-90 -217l-133 52l72 165h-246v173h307l107 258h-414v172h475l88 213z" />
    <glyph glyph-name="lessequal" unicode="&#x2264;" horiz-adv-x="1050" 
d="M952 201l-852 444v186l852 445v-201l-690 -334v-4l690 -336v-200zM963 -45h-869v174h869v-174z" />
    <glyph glyph-name="greaterequal" unicode="&#x2265;" horiz-adv-x="1050" 
d="M106 1276l852 -445v-186l-852 -444v200l691 336v4l-691 334v201zM958 -45h-862v174h862v-174z" />
    <glyph glyph-name="lozenge" unicode="&#x25ca;" horiz-adv-x="1165" 
d="M1073 711l-377 -813h-241l-361 813l375 817h242zM809 705l-182 434q-26 80 -37 139h-8q-9 -50 -37 -139l-189 -420l187 -445q22 -78 32 -131h11q15 83 32 125z" />
    <glyph glyph-name="fi" unicode="&#xfb01;" horiz-adv-x="1366" 
d="M879 0v1067h368v-1067h-368zM879 1229v307h368v-307h-368zM209 0v817h-189v250h189v152q0 342 354 342q112 0 240 -25l-8 -262q-58 20 -95 20q-63 0 -92.5 -34t-29.5 -105v-88h200v-250h-200v-817h-369z" />
    <glyph glyph-name="fl" unicode="&#xfb02;" horiz-adv-x="1366" 
d="M879 0v1536h368v-1536h-368zM209 0v817h-189v250h189v152q0 342 354 342q112 0 240 -25l-8 -262q-58 20 -95 20q-63 0 -92.5 -34t-29.5 -105v-88h200v-250h-200v-817h-369z" />
    <glyph glyph-name="a.superior" horiz-adv-x="757" 
d="M147 1257l-8 158q111 39 269 39q90 0 150 -17t90.5 -51t42 -72.5t11.5 -92.5v-269q0 -70 11 -141h-217q-11 80 -11 88q-55 -52 -101 -74t-108 -22q-106 0 -168.5 53.5t-62.5 142.5q0 103 92 159t277 56h63v21q0 34 -32.5 59t-98.5 25q-97 0 -199 -62zM477 1092v20h-26
q-181 0 -181 -104q0 -34 22.5 -52t61.5 -18q123 0 123 154z" />
    <glyph glyph-name="o.superior" horiz-adv-x="757" 
d="M287 1126q0 -82 19 -129t71 -47q29 0 48.5 13.5t29 40t13 55t3.5 67.5t-3.5 68.5t-13 56.5t-29 41.5t-48.5 14.5q-52 0 -71 -49t-19 -132zM29 1126q0 67 19 124t58.5 104t108.5 73.5t162 26.5q94 0 164 -26.5t110 -73.5t59 -104t19 -124t-19 -123.5t-59 -102t-110 -71.5
t-164 -26q-93 0 -162 26t-108.5 71.5t-58.5 102t-19 123.5z" />
    <glyph glyph-name="one.superior" horiz-adv-x="720" 
d="M297 578v591l-135 -106l-107 164l283 203h209v-852h-250z" />
    <glyph glyph-name="two.superior" horiz-adv-x="720" 
d="M61 578v174l39 39q9 9 43 41.5t54.5 52.5t54 55t54.5 62t43.5 58.5t33 59.5t10.5 51q0 49 -31 74t-88 25q-94 0 -184 -66l-14 199q34 15 54.5 22.5t80 18t129.5 10.5q150 0 230.5 -60.5t80.5 -176.5q0 -99 -73 -198.5t-220 -232.5l-22 -20v-4h323v-184h-598z" />
    <glyph glyph-name="three.superior" horiz-adv-x="720" 
d="M184 938v164h60q155 0 155 88q0 43 -37.5 65.5t-93.5 22.5q-84 0 -182 -41l-10 174q144 43 239 43q75 0 132 -9.5t107 -33t76.5 -68t26.5 -108.5q0 -84 -60 -139t-130 -60v-4q24 -2 47 -7.5t52 -19.5t50 -34.5t35.5 -56t14.5 -80.5q0 -128 -98.5 -196.5t-266.5 -68.5
q-29 0 -54.5 1t-48 4t-38 5t-35 6.5t-26.5 6t-25 7t-19 5.5l11 184q3 -1 26 -9.5t36 -12t36.5 -10t49 -9t52.5 -2.5q61 0 101.5 24.5t40.5 64.5q0 51 -42 77.5t-116 26.5h-66z" />
    </font>
</defs>
</svg>
